  0
SECTION
  2
HEADER
  9
$ACADVER
  1
AC1015
  9
$ACADMAINTVER
 70
    20
  9
$DWGCODEPAGE
  3
ANSI_1252
  9
$INSBASE
 10
0.0
 20
0.0
 30
0.0
  9
$EXTMIN
 10
-54.01522280393661
 20
45.52484214310891
 30
-0.0000000349181948
  9
$EXTMAX
 10
61.55133502836713
 20
195.0840062066173
 30
0.0000000814935747
  9
$LIMMIN
 10
0.0
 20
0.0
  9
$LIMMAX
 10
12.0
 20
9.0
  9
$ORTHOMODE
 70
     0
  9
$REGENMODE
 70
     1
  9
$FILLMODE
 70
     1
  9
$QTEXTMODE
 70
     0
  9
$MIRRTEXT
 70
     1
  9
$LTSCALE
 40
1.0
  9
$ATTMODE
 70
     1
  9
$TEXTSIZE
 40
2.302590340398154
  9
$TRACEWID
 40
0.05
  9
$TEXTSTYLE
  7
Standard
  9
$CLAYER
  8
Dynamic Closures details
  9
$CELTYPE
  6
ByLayer
  9
$CECOLOR
 62
   256
  9
$CELTSCALE
 40
1.0
  9
$DISPSILH
 70
     0
  9
$DIMSCALE
 40
1.0
  9
$DIMASZ
 40
0.18
  9
$DIMEXO
 40
0.0625
  9
$DIMDLI
 40
0.38
  9
$DIMRND
 40
0.0
  9
$DIMDLE
 40
0.0
  9
$DIMEXE
 40
0.18
  9
$DIMTP
 40
0.0
  9
$DIMTM
 40
0.0
  9
$DIMTXT
 40
0.18
  9
$DIMCEN
 40
0.09
  9
$DIMTSZ
 40
0.0
  9
$DIMTOL
 70
     0
  9
$DIMLIM
 70
     0
  9
$DIMTIH
 70
     1
  9
$DIMTOH
 70
     1
  9
$DIMSE1
 70
     0
  9
$DIMSE2
 70
     0
  9
$DIMTAD
 70
     0
  9
$DIMZIN
 70
     0
  9
$DIMBLK
  1

  9
$DIMASO
 70
     1
  9
$DIMSHO
 70
     1
  9
$DIMPOST
  1

  9
$DIMAPOST
  1

  9
$DIMALT
 70
     0
  9
$DIMALTD
 70
     2
  9
$DIMALTF
 40
25.4
  9
$DIMLFAC
 40
1.0
  9
$DIMTOFL
 70
     0
  9
$DIMTVP
 40
0.0
  9
$DIMTIX
 70
     0
  9
$DIMSOXD
 70
     0
  9
$DIMSAH
 70
     0
  9
$DIMBLK1
  1

  9
$DIMBLK2
  1

  9
$DIMSTYLE
  2
Standard
  9
$DIMCLRD
 70
     0
  9
$DIMCLRE
 70
     0
  9
$DIMCLRT
 70
     0
  9
$DIMTFAC
 40
1.0
  9
$DIMGAP
 40
0.09
  9
$DIMJUST
 70
     0
  9
$DIMSD1
 70
     0
  9
$DIMSD2
 70
     0
  9
$DIMTOLJ
 70
     1
  9
$DIMTZIN
 70
     0
  9
$DIMALTZ
 70
     0
  9
$DIMALTTZ
 70
     0
  9
$DIMUPT
 70
     0
  9
$DIMDEC
 70
     4
  9
$DIMTDEC
 70
     4
  9
$DIMALTU
 70
     2
  9
$DIMALTTD
 70
     2
  9
$DIMTXSTY
  7
Standard
  9
$DIMAUNIT
 70
     0
  9
$DIMADEC
 70
     0
  9
$DIMALTRND
 40
0.0
  9
$DIMAZIN
 70
     0
  9
$DIMDSEP
 70
    46
  9
$DIMATFIT
 70
     3
  9
$DIMFRAC
 70
     0
  9
$DIMLDRBLK
  1

  9
$DIMLUNIT
 70
     2
  9
$DIMLWD
 70
    -2
  9
$DIMLWE
 70
    -2
  9
$DIMTMOVE
 70
     0
  9
$LUNITS
 70
     2
  9
$LUPREC
 70
     4
  9
$SKETCHINC
 40
0.1
  9
$FILLETRAD
 40
0.5
  9
$AUNITS
 70
     0
  9
$AUPREC
 70
     0
  9
$MENU
  1
.
  9
$ELEVATION
 40
0.0
  9
$PELEVATION
 40
0.0
  9
$THICKNESS
 40
0.0
  9
$LIMCHECK
 70
     0
  9
$CHAMFERA
 40
0.5
  9
$CHAMFERB
 40
0.5
  9
$CHAMFERC
 40
1.0
  9
$CHAMFERD
 40
0.0
  9
$SKPOLY
 70
     0
  9
$TDCREATE
 40
2453214.472070278
  9
$TDUCREATE
 40
2453214.638736945
  9
$TDUPDATE
 40
2456503.607899769
  9
$TDUUPDATE
 40
2456503.774566435
  9
$TDINDWG
 40
0.4639819329
  9
$TDUSRTIMER
 40
2456469.502613623
  9
$USRTIMER
 70
     1
  9
$ANGBASE
 50
0.0
  9
$ANGDIR
 70
     0
  9
$PDMODE
 70
     0
  9
$PDSIZE
 40
0.0
  9
$PLINEWID
 40
0.0
  9
$SPLFRAME
 70
     0
  9
$SPLINETYPE
 70
     6
  9
$SPLINESEGS
 70
     8
  9
$HANDSEED
  5
3729
  9
$SURFTAB1
 70
     6
  9
$SURFTAB2
 70
     6
  9
$SURFTYPE
 70
     6
  9
$SURFU
 70
     6
  9
$SURFV
 70
     6
  9
$UCSBASE
  2

  9
$UCSNAME
  2

  9
$UCSORG
 10
0.0
 20
0.0
 30
0.0
  9
$UCSXDIR
 10
1.0
 20
0.0
 30
0.0
  9
$UCSYDIR
 10
0.0
 20
1.0
 30
0.0
  9
$UCSORTHOREF
  2

  9
$UCSORTHOVIEW
 70
     0
  9
$UCSORGTOP
 10
0.0
 20
0.0
 30
0.0
  9
$UCSORGBOTTOM
 10
0.0
 20
0.0
 30
0.0
  9
$UCSORGLEFT
 10
0.0
 20
0.0
 30
0.0
  9
$UCSORGRIGHT
 10
0.0
 20
0.0
 30
0.0
  9
$UCSORGFRONT
 10
0.0
 20
0.0
 30
0.0
  9
$UCSORGBACK
 10
0.0
 20
0.0
 30
0.0
  9
$PUCSBASE
  2

  9
$PUCSNAME
  2

  9
$PUCSORG
 10
0.0
 20
0.0
 30
0.0
  9
$PUCSXDIR
 10
1.0
 20
0.0
 30
0.0
  9
$PUCSYDIR
 10
0.0
 20
1.0
 30
0.0
  9
$PUCSORTHOREF
  2

  9
$PUCSORTHOVIEW
 70
     0
  9
$PUCSORGTOP
 10
0.0
 20
0.0
 30
0.0
  9
$PUCSORGBOTTOM
 10
0.0
 20
0.0
 30
0.0
  9
$PUCSORGLEFT
 10
0.0
 20
0.0
 30
0.0
  9
$PUCSORGRIGHT
 10
0.0
 20
0.0
 30
0.0
  9
$PUCSORGFRONT
 10
0.0
 20
0.0
 30
0.0
  9
$PUCSORGBACK
 10
0.0
 20
0.0
 30
0.0
  9
$USERI1
 70
     0
  9
$USERI2
 70
     0
  9
$USERI3
 70
     0
  9
$USERI4
 70
     0
  9
$USERI5
 70
     0
  9
$USERR1
 40
0.0
  9
$USERR2
 40
0.0
  9
$USERR3
 40
0.0
  9
$USERR4
 40
0.0
  9
$USERR5
 40
0.0
  9
$WORLDVIEW
 70
     1
  9
$SHADEDGE
 70
     3
  9
$SHADEDIF
 70
    70
  9
$TILEMODE
 70
     1
  9
$MAXACTVP
 70
    64
  9
$PINSBASE
 10
0.0
 20
0.0
 30
0.0
  9
$PLIMCHECK
 70
     0
  9
$PEXTMIN
 10
1.000000000000000E+20
 20
1.000000000000000E+20
 30
1.000000000000000E+20
  9
$PEXTMAX
 10
-1.000000000000000E+20
 20
-1.000000000000000E+20
 30
-1.000000000000000E+20
  9
$PLIMMIN
 10
0.0
 20
0.0
  9
$PLIMMAX
 10
0.0
 20
0.0
  9
$UNITMODE
 70
     0
  9
$VISRETAIN
 70
     1
  9
$PLINEGEN
 70
     0
  9
$PSLTSCALE
 70
     1
  9
$TREEDEPTH
 70
  3020
  9
$CMLSTYLE
  2
Standard
  9
$CMLJUST
 70
     0
  9
$CMLSCALE
 40
1.0
  9
$PROXYGRAPHICS
 70
     1
  9
$MEASUREMENT
 70
     0
  9
$CELWEIGHT
370
    -1
  9
$ENDCAPS
280
     0
  9
$JOINSTYLE
280
     0
  9
$LWDISPLAY
290
     0
  9
$INSUNITS
 70
     1
  9
$HYPERLINKBASE
  1

  9
$STYLESHEET
  1
MONOCHROME.CTB
  9
$XEDIT
290
     1
  9
$CEPSNTYPE
380
     0
  9
$PSTYLEMODE
290
     1
  9
$FINGERPRINTGUID
  2
{93328789-1BA8-49DF-BBCC-9B7B86F00620}
  9
$VERSIONGUID
  2
{B1941A60-211B-4FC9-A95D-BEB99702D175}
  9
$EXTNAMES
290
     1
  9
$PSVPSCALE
 40
0.0
  9
$OLESTARTUP
290
     0
  0
ENDSEC
  0
SECTION
  2
CLASSES
  0
CLASS
  1
ACDBDICTIONARYWDFLT
  2
AcDbDictionaryWithDefault
  3
ObjectDBX Classes
 90
        0
280
     0
281
     0
  0
CLASS
  1
ACDBPLACEHOLDER
  2
AcDbPlaceHolder
  3
ObjectDBX Classes
 90
        0
280
     0
281
     0
  0
CLASS
  1
LAYOUT
  2
AcDbLayout
  3
ObjectDBX Classes
 90
        0
280
     0
281
     0
  0
CLASS
  1
MATERIAL
  2
AcDbMaterial
  3
ObjectDBX Classes
 90
     1153
280
     0
281
     0
  0
CLASS
  1
VISUALSTYLE
  2
AcDbVisualStyle
  3
ObjectDBX Classes
 90
     4095
280
     0
281
     0
  0
CLASS
  1
TABLESTYLE
  2
AcDbTableStyle
  3
ObjectDBX Classes
 90
     4095
280
     0
281
     0
  0
CLASS
  1
SCALE
  2
AcDbScale
  3
ObjectDBX Classes
 90
     1153
280
     0
281
     0
  0
CLASS
  1
MLEADERSTYLE
  2
AcDbMLeaderStyle
  3
ACDB_MLEADERSTYLE_CLASS
 90
     4095
280
     0
281
     0
  0
CLASS
  1
DICTIONARYVAR
  2
AcDbDictionaryVar
  3
ObjectDBX Classes
 90
        0
280
     0
281
     0
  0
CLASS
  1
CELLSTYLEMAP
  2
AcDbCellStyleMap
  3
ObjectDBX Classes
 90
     1152
280
     0
281
     0
  0
CLASS
  1
SORTENTSTABLE
  2
AcDbSortentsTable
  3
ObjectDBX Classes
 90
        0
280
     0
281
     0
  0
CLASS
  1
RASTERVARIABLES
  2
AcDbRasterVariables
  3
ISM
 90
        0
280
     0
281
     0
  0
ENDSEC
  0
SECTION
  2
TABLES
  0
TABLE
  2
VPORT
  5
8
330
0
100
AcDbSymbolTable
 70
     1
  0
VPORT
  5
32E
330
8
100
AcDbSymbolTableRecord
100
AcDbViewportTableRecord
  2
*Active
 70
     0
 10
0.0
 20
0.0
 11
1.0
 21
1.0
 12
3.768056112215262
 22
120.3044241748631
 13
0.0
 23
0.0
 14
0.5
 24
0.5
 15
0.5
 25
0.5
 16
0.0
 26
0.0
 36
1.0
 17
0.0
 27
0.0
 37
0.0
 40
150.6173656960332
 41
2.170011806375442
 42
50.0
 43
0.0
 44
0.0
 50
0.0
 51
0.0
 71
    16
 72
   100
 73
     1
 74
     3
 75
     0
 76
     0
 77
     0
 78
     0
281
     0
 65
     1
110
0.0
120
0.0
130
0.0
111
1.0
121
0.0
131
0.0
112
0.0
122
1.0
132
0.0
 79
     0
146
0.0
1001
ACAD_NAV_VCDISPLAY
1070
     3
  0
ENDTAB
  0
TABLE
  2
LTYPE
  5
5
330
0
100
AcDbSymbolTable
 70
     3
  0
LTYPE
  5
14
330
5
100
AcDbSymbolTableRecord
100
AcDbLinetypeTableRecord
  2
ByBlock
 70
     0
  3

 72
    65
 73
     0
 40
0.0
  0
LTYPE
  5
15
330
5
100
AcDbSymbolTableRecord
100
AcDbLinetypeTableRecord
  2
ByLayer
 70
     0
  3

 72
    65
 73
     0
 40
0.0
  0
LTYPE
  5
16
330
5
100
AcDbSymbolTableRecord
100
AcDbLinetypeTableRecord
  2
Continuous
 70
     0
  3
Solid line
 72
    65
 73
     0
 40
0.0
  0
LTYPE
  5
40A
330
5
100
AcDbSymbolTableRecord
100
AcDbLinetypeTableRecord
  2
CENTER
 70
     0
  3
Center ____ _ ____ _ ____ _ ____ _ ____ _ ____
 72
    65
 73
     4
 40
2.0
 49
1.25
 74
     0
 49
-0.25
 74
     0
 49
0.25
 74
     0
 49
-0.25
 74
     0
  0
ENDTAB
  0
TABLE
  2
LAYER
  5
2
102
{ACAD_XDICTIONARY
360
38C
102
}
330
0
100
AcDbSymbolTable
 70
     6
  0
LAYER
  5
10
102
{ACAD_XDICTIONARY
360
387
102
}
330
2
100
AcDbSymbolTableRecord
100
AcDbLayerTableRecord
  2
0
 70
     0
 62
     7
  6
Continuous
370
    -3
390
F
  0
LAYER
  5
6D
330
2
100
AcDbSymbolTableRecord
100
AcDbLayerTableRecord
  2
Defpoints
 70
     0
 62
     7
  6
Continuous
290
     0
370
    -3
390
F
  0
LAYER
  5
3F8
330
2
100
AcDbSymbolTableRecord
100
AcDbLayerTableRecord
  2
Dynamic Closures details
 70
     0
 62
    50
  6
Continuous
370
    -3
390
F
1001
AcAecLayerStandard
1000

1000

1001
AcCmTransparency
1071
        0
  0
LAYER
  5
40B
330
2
100
AcDbSymbolTableRecord
100
AcDbLayerTableRecord
  2
Text
 70
     0
 62
     7
  6
Continuous
370
    -3
390
F
1001
AcAecLayerStandard
1000

1000

1001
AcCmTransparency
1071
        0
  0
LAYER
  5
72A
330
2
100
AcDbSymbolTableRecord
100
AcDbLayerTableRecord
  2
CK_LEVEL_1
 70
     0
 62
     7
  6
Continuous
370
    -3
390
F
  0
LAYER
  5
34C3
330
2
100
AcDbSymbolTableRecord
100
AcDbLayerTableRecord
  2
FORMAT
 70
     0
 62
     7
  6
Continuous
370
    -3
390
F
  0
ENDTAB
  0
TABLE
  2
STYLE
  5
3
330
0
100
AcDbSymbolTable
 70
     2
  0
STYLE
  5
11
330
3
100
AcDbSymbolTableRecord
100
AcDbTextStyleTableRecord
  2
Standard
 70
     0
 40
0.0
 41
1.0
 50
0.0
 71
     0
 42
2.302590340398154
  3
txt
  4

  0
STYLE
  5
34C8
330
3
100
AcDbSymbolTableRecord
100
AcDbTextStyleTableRecord
  2
SLDTEXTSTYLE0
 70
     0
 40
0.0
 41
0.75
 50
0.0
 71
     0
 42
0.2
  3
TXT
  4

  0
ENDTAB
  0
TABLE
  2
VIEW
  5
6
330
0
100
AcDbSymbolTable
 70
     0
  0
ENDTAB
  0
TABLE
  2
UCS
  5
7
330
0
100
AcDbSymbolTable
 70
     0
  0
ENDTAB
  0
TABLE
  2
APPID
  5
9
330
0
100
AcDbSymbolTable
 70
     6
  0
APPID
  5
12
330
9
100
AcDbSymbolTableRecord
100
AcDbRegAppTableRecord
  2
ACAD
 70
     0
  0
APPID
  5
37C
330
9
100
AcDbSymbolTableRecord
100
AcDbRegAppTableRecord
  2
ACAD_NAV_VCDISPLAY
 70
     0
  0
APPID
  5
3F9
330
9
100
AcDbSymbolTableRecord
100
AcDbRegAppTableRecord
  2
AcAecLayerStandard
 70
     0
  0
APPID
  5
3FA
330
9
100
AcDbSymbolTableRecord
100
AcDbRegAppTableRecord
  2
AcCmTransparency
 70
     0
  0
APPID
  5
3FC
330
9
100
AcDbSymbolTableRecord
100
AcDbRegAppTableRecord
  2
ACAD_EXEMPT_FROM_CAD_STANDARDS
 70
     0
  0
APPID
  5
478
330
9
100
AcDbSymbolTableRecord
100
AcDbRegAppTableRecord
  2
ACAD_MLEADERVER
 70
     0
  0
ENDTAB
  0
TABLE
  2
DIMSTYLE
  5
A
330
0
100
AcDbSymbolTable
 70
     4
100
AcDbDimStyleTable
 71
     0
  0
DIMSTYLE
105
27
102
{ACAD_REACTORS
330
3498
330
358A
330
359B
330
35A9
330
35B9
330
35C7
330
35E4
330
35E6
330
35E8
102
}
330
A
100
AcDbSymbolTableRecord
100
AcDbDimStyleTableRecord
  2
Standard
 70
     0
340
11
  0
DIMSTYLE
105
34C7
330
A
100
AcDbSymbolTableRecord
100
AcDbDimStyleTableRecord
  2
SLDDIMSTYLE1
 70
     0
 41
0.13
 44
0.0
 45
0.000000001
 73
     0
 74
     0
 77
     1
 78
     4
 79
     1
140
0.1041666666666667
147
0.0260416666666667
172
     1
173
     1
271
     3
272
     3
276
     2
284
    12
289
     0
340
34C8
  0
DIMSTYLE
105
34C9
330
A
100
AcDbSymbolTableRecord
100
AcDbDimStyleTableRecord
  2
SLDDIMSTYLE2
 70
     0
 41
0.13
 44
0.0
 45
0.000000001
 73
     0
 74
     0
 77
     1
 78
    12
 79
     3
140
0.1041666666666667
141
0.0
147
0.0260416666666667
173
     1
271
     3
272
     3
276
     2
284
    12
340
34C8
  0
DIMSTYLE
105
34CA
330
A
100
AcDbSymbolTableRecord
100
AcDbDimStyleTableRecord
  2
SLDDIMSTYLE3
 70
     0
 41
0.13
 44
0.0
 45
0.000000001
 73
     0
 74
     0
 77
     1
 78
    12
 79
     3
140
0.1041666666666667
141
0.0
147
0.0260416666666667
173
     1
271
     3
272
     3
276
     2
284
    12
340
34C8
  0
ENDTAB
  0
TABLE
  2
BLOCK_RECORD
  5
1
330
0
100
AcDbSymbolTable
 70
    24
  0
BLOCK_RECORD
  5
1F
102
{ACAD_XDICTIONARY
360
404
102
}
330
1
100
AcDbSymbolTableRecord
100
AcDbBlockTableRecord
  2
*Model_Space
340
22
  0
BLOCK_RECORD
  5
1B
330
1
100
AcDbSymbolTableRecord
100
AcDbBlockTableRecord
  2
*Paper_Space
340
1E
  0
BLOCK_RECORD
  5
23
330
1
100
AcDbSymbolTableRecord
100
AcDbBlockTableRecord
  2
*Paper_Space0
340
26
  0
BLOCK_RECORD
  5
6B6
330
1
100
AcDbSymbolTableRecord
100
AcDbBlockTableRecord
  2
EZ POCKET DETAIL
340
0
310
2800000020000000200000000100080000000000000400000000000000000000000000000000000000000000000080000080000000808000800000008000800080800000C0C0C000C0DCC000F0CAA6000020400000206000002080000020A0000020C0000020E00000400000004020000040400000406000004080000040A0
310
000040C0000040E00000600000006020000060400000606000006080000060A0000060C0000060E00000800000008020000080400000806000008080000080A0000080C0000080E00000A0000000A0200000A0400000A0600000A0800000A0A00000A0C00000A0E00000C0000000C0200000C0400000C0600000C0800000C0
310
A00000C0C00000C0E00000E0000000E0200000E0400000E0600000E0800000E0A00000E0C00000E0E00040000000400020004000400040006000400080004000A0004000C0004000E00040200000402020004020400040206000402080004020A0004020C0004020E000404000004040200040404000404060004040800040
310
40A0004040C0004040E00040600000406020004060400040606000406080004060A0004060C0004060E00040800000408020004080400040806000408080004080A0004080C0004080E00040A0000040A0200040A0400040A0600040A0800040A0A00040A0C00040A0E00040C0000040C0200040C0400040C0600040C08000
310
40C0A00040C0C00040C0E00040E0000040E0200040E0400040E0600040E0800040E0A00040E0C00040E0E00080000000800020008000400080006000800080008000A0008000C0008000E00080200000802020008020400080206000802080008020A0008020C0008020E00080400000804020008040400080406000804080
310
008040A0008040C0008040E00080600000806020008060400080606000806080008060A0008060C0008060E00080800000808020008080400080806000808080008080A0008080C0008080E00080A0000080A0200080A0400080A0600080A0800080A0A00080A0C00080A0E00080C0000080C0200080C0400080C0600080C0
310
800080C0A00080C0C00080C0E00080E0000080E0200080E0400080E0600080E0800080E0A00080E0C00080E0E000C0000000C0002000C0004000C0006000C0008000C000A000C000C000C000E000C0200000C0202000C0204000C0206000C0208000C020A000C020C000C020E000C0400000C0402000C0404000C0406000C0
310
408000C040A000C040C000C040E000C0600000C0602000C0604000C0606000C0608000C060A000C060C000C060E000C0800000C0802000C0804000C0806000C0808000C080A000C080C000C080E000C0A00000C0A02000C0A04000C0A06000C0A08000C0A0A000C0A0C000C0A0E000C0C00000C0C02000C0C04000C0C06000
310
C0C08000C0C0A000F0FBFF00A4A0A000808080000000FF0000FF000000FFFF00FF000000FF00FF00FFFF0000FFFFFF0000000000000000000000000000000000000000000000000000000000000000000000000000000000000000000000000000000000000000000000000000000000000000000000000000000000000000
310
00000000000000000000000000000000000000000000000000000000000000000000000000000000000000000000000000000000000000000000000000000000000000000000000000000000000000000000000000000000000000000000000000000000000000000000000000000000000000000000000000000000000000
310
00000000000000000000000000000000000000000000000000000000000000000000000000000000000000000000000000000000000000000000000000000000000000000000000000000000000000000000000000000000000000000000000000000000000000000000000000000000000000000000000000000000000000
310
0000000000000000000000000000000000000000000000000000000000000000000000000000000000000000000000000000000000000000000000000000000000000000000000000000000000000000000000000000000000000000000000000000000000000000000000000000000000000000FBFBFBFBFBFBFBFBFBFBFB
310
FBFBFBFBFBFBFBFBFBFBFBFBFBFBFBFBFBFBFB0000FBFB000000000000000000000000000000000000000000000000000000000000FBFBFBFBFBFBFBFBFBFBFBFBFBFBFBFBFBFBFBFBFBFBFBFBFBFBFBFBFBFB0000FBFBFBFBFBFBFBFBFBFBFBFBFBFBFBFBFBFBFBFBFBFBFBFBFBFBFBFBFBFB000000000000000000000000
310
00000000000000000000000000000000000000000000000000000000000000000000000000000000000000000000000000000000000000000000000000000000000000000000000000000000000000000000000000000000000000000000000000000000000000000000000000000000000000000000000000000000000000
310
00000000000000000000000000000000000000000000000000000000000000000000000000000000000000000000000000000000000000000000000000000000000000000000000000000000000000000000000000000000000000000000000000000000000000000000000000000000000000000000000000000000000000
310
00000000000000000000000000000000000000000000000000000000000000000000000000000000000000000000000000000000000000000000000000000000000000000000000000000000000000000000000000000000000000000000000000000000000000000000000000000000000000000000000000000000000000
310
0000000000000000000000000000000000000000000000000000000000000000000000000000000000000000000000000000000000000000
102
{BLKREFS
331
363B
102
}
1001
ACAD
1000
DesignCenter Data
1002
{
1070
     1
1070
     1
1002
}
  0
BLOCK_RECORD
  5
6C3
330
1
100
AcDbSymbolTableRecord
100
AcDbBlockTableRecord
  2
SL POCKET
340
0
310
2800000020000000200000000100080000000000000400000000000000000000000000000000000000000000000080000080000000808000800000008000800080800000C0C0C000C0DCC000F0CAA6000020400000206000002080000020A0000020C0000020E00000400000004020000040400000406000004080000040A0
310
000040C0000040E00000600000006020000060400000606000006080000060A0000060C0000060E00000800000008020000080400000806000008080000080A0000080C0000080E00000A0000000A0200000A0400000A0600000A0800000A0A00000A0C00000A0E00000C0000000C0200000C0400000C0600000C0800000C0
310
A00000C0C00000C0E00000E0000000E0200000E0400000E0600000E0800000E0A00000E0C00000E0E00040000000400020004000400040006000400080004000A0004000C0004000E00040200000402020004020400040206000402080004020A0004020C0004020E000404000004040200040404000404060004040800040
310
40A0004040C0004040E00040600000406020004060400040606000406080004060A0004060C0004060E00040800000408020004080400040806000408080004080A0004080C0004080E00040A0000040A0200040A0400040A0600040A0800040A0A00040A0C00040A0E00040C0000040C0200040C0400040C0600040C08000
310
40C0A00040C0C00040C0E00040E0000040E0200040E0400040E0600040E0800040E0A00040E0C00040E0E00080000000800020008000400080006000800080008000A0008000C0008000E00080200000802020008020400080206000802080008020A0008020C0008020E00080400000804020008040400080406000804080
310
008040A0008040C0008040E00080600000806020008060400080606000806080008060A0008060C0008060E00080800000808020008080400080806000808080008080A0008080C0008080E00080A0000080A0200080A0400080A0600080A0800080A0A00080A0C00080A0E00080C0000080C0200080C0400080C0600080C0
310
800080C0A00080C0C00080C0E00080E0000080E0200080E0400080E0600080E0800080E0A00080E0C00080E0E000C0000000C0002000C0004000C0006000C0008000C000A000C000C000C000E000C0200000C0202000C0204000C0206000C0208000C020A000C020C000C020E000C0400000C0402000C0404000C0406000C0
310
408000C040A000C040C000C040E000C0600000C0602000C0604000C0606000C0608000C060A000C060C000C060E000C0800000C0802000C0804000C0806000C0808000C080A000C080C000C080E000C0A00000C0A02000C0A04000C0A06000C0A08000C0A0A000C0A0C000C0A0E000C0C00000C0C02000C0C04000C0C06000
310
C0C08000C0C0A000F0FBFF00A4A0A000808080000000FF0000FF000000FFFF00FF000000FF00FF00FFFF0000FFFFFF0000000000000000000000000000000000000000000000000000000000000000000000000000000000000000000000000000000000000000000000000000000000000000000000000000000000000000
310
00000000000000000000000000000000000000000000000000000000000000000000000000000000000000000000000000000000000000000000000000000000000000000000000000000000000000000000000000000000000000000000000000000000000000000000000000000000000000000000000000000000000000
310
00000000000000000000000000000000000000000000000000000000000000000000000000000000000000000000000000000000000000000000000000000000000000000000000000000000000000000000000000000000000000000000000000000000000000000000000000000000000000000000000000000000000000
310
0000000000000000000000000000000000000000000000000000000000000000000000000000000000000000000000000000000000000000000000000000000000000000000000000000000000000000000000000000000000000000000000000000000000000000000000000000000000000000FBFBFBFBFBFBFBFBFBFBFB
310
FBFBFBFBFBFBFBFBFBFBFBFBFBFBFBFBFBFBFB0000FBFB000000000000000000000000000000000000000000000000000000000000FBFBFBFBFBFBFBFBFBFBFBFBFBFBFBFBFBFBFBFBFBFBFBFBFBFBFBFBFBFB0000FBFBFBFBFBFBFBFBFBFBFBFBFBFBFBFBFBFBFBFBFBFBFBFBFBFBFBFBFBFB000000000000000000000000
310
00000000000000000000000000000000000000000000000000000000000000000000000000000000000000000000000000000000000000000000000000000000000000000000000000000000000000000000000000000000000000000000000000000000000000000000000000000000000000000000000000000000000000
310
00000000000000000000000000000000000000000000000000000000000000000000000000000000000000000000000000000000000000000000000000000000000000000000000000000000000000000000000000000000000000000000000000000000000000000000000000000000000000000000000000000000000000
310
00000000000000000000000000000000000000000000000000000000000000000000000000000000000000000000000000000000000000000000000000000000000000000000000000000000000000000000000000000000000000000000000000000000000000000000000000000000000000000000000000000000000000
310
0000000000000000000000000000000000000000000000000000000000000000000000000000000000000000000000000000000000000000
102
{BLKREFS
331
364E
102
}
1001
ACAD
1000
DesignCenter Data
1002
{
1070
     1
1070
     1
1002
}
  0
BLOCK_RECORD
  5
6D0
330
1
100
AcDbSymbolTableRecord
100
AcDbBlockTableRecord
  2
STD POCKET
340
0
310
2800000020000000200000000100080000000000000400000000000000000000000000000000000000000000000080000080000000808000800000008000800080800000C0C0C000C0DCC000F0CAA6000020400000206000002080000020A0000020C0000020E00000400000004020000040400000406000004080000040A0
310
000040C0000040E00000600000006020000060400000606000006080000060A0000060C0000060E00000800000008020000080400000806000008080000080A0000080C0000080E00000A0000000A0200000A0400000A0600000A0800000A0A00000A0C00000A0E00000C0000000C0200000C0400000C0600000C0800000C0
310
A00000C0C00000C0E00000E0000000E0200000E0400000E0600000E0800000E0A00000E0C00000E0E00040000000400020004000400040006000400080004000A0004000C0004000E00040200000402020004020400040206000402080004020A0004020C0004020E000404000004040200040404000404060004040800040
310
40A0004040C0004040E00040600000406020004060400040606000406080004060A0004060C0004060E00040800000408020004080400040806000408080004080A0004080C0004080E00040A0000040A0200040A0400040A0600040A0800040A0A00040A0C00040A0E00040C0000040C0200040C0400040C0600040C08000
310
40C0A00040C0C00040C0E00040E0000040E0200040E0400040E0600040E0800040E0A00040E0C00040E0E00080000000800020008000400080006000800080008000A0008000C0008000E00080200000802020008020400080206000802080008020A0008020C0008020E00080400000804020008040400080406000804080
310
008040A0008040C0008040E00080600000806020008060400080606000806080008060A0008060C0008060E00080800000808020008080400080806000808080008080A0008080C0008080E00080A0000080A0200080A0400080A0600080A0800080A0A00080A0C00080A0E00080C0000080C0200080C0400080C0600080C0
310
800080C0A00080C0C00080C0E00080E0000080E0200080E0400080E0600080E0800080E0A00080E0C00080E0E000C0000000C0002000C0004000C0006000C0008000C000A000C000C000C000E000C0200000C0202000C0204000C0206000C0208000C020A000C020C000C020E000C0400000C0402000C0404000C0406000C0
310
408000C040A000C040C000C040E000C0600000C0602000C0604000C0606000C0608000C060A000C060C000C060E000C0800000C0802000C0804000C0806000C0808000C080A000C080C000C080E000C0A00000C0A02000C0A04000C0A06000C0A08000C0A0A000C0A0C000C0A0E000C0C00000C0C02000C0C04000C0C06000
310
C0C08000C0C0A000F0FBFF00A4A0A000808080000000FF0000FF000000FFFF00FF000000FF00FF00FFFF0000FFFFFF0000000000000000000000000000000000000000000000000000000000000000000000000000000000000000000000000000000000000000000000000000000000000000000000000000000000000000
310
00000000000000000000000000000000000000000000000000000000000000000000000000000000000000000000000000000000000000000000000000000000000000000000000000000000000000000000000000000000000000000000000000000000000000000000000000000000000000000000000000000000000000
310
00000000000000000000000000000000000000000000000000000000000000000000000000000000000000000000000000000000000000000000000000000000000000000000000000000000000000000000000000000000000000000000000000000000000000000000000000000000000000000000000000000000000000
310
000000000000000000000000000000000000000000000000000000000000000000000000000000000000000000000000000000000000000000000000000000000000000000000000000000000000000000000000FBFBFBFBFBFBFBFBFBFBFBFBFBFBFBFBFBFBFBFBFBFBFBFBFBFBFBFBFBFB0000FBFB000000000000000000
310
000000000000000000000000000000000000000000FBFB000000000000000000000000000000000000000000000000000000000000FBFBFBFBFBFBFBFBFBFBFBFBFBFBFBFBFBFBFBFBFBFBFBFBFBFBFBFBFBFB0000FBFB000000000000000000000000000000000000000000000000000000000000FBFBFBFBFBFBFBFBFBFB
310
FBFBFBFBFBFBFBFBFBFBFBFBFBFBFBFBFBFBFBFB0000000000000000000000000000000000000000000000000000000000000000000000000000000000000000000000000000000000000000000000000000000000000000000000000000000000000000000000000000000000000000000000000000000000000000000000
310
00000000000000000000000000000000000000000000000000000000000000000000000000000000000000000000000000000000000000000000000000000000000000000000000000000000000000000000000000000000000000000000000000000000000000000000000000000000000000000000000000000000000000
310
00000000000000000000000000000000000000000000000000000000000000000000000000000000000000000000000000000000000000000000000000000000000000000000000000000000000000000000000000000000000000000000000000000000000000000000000000000000000000000000000000000000000000
310
0000000000000000000000000000000000000000000000000000000000000000000000000000000000000000000000000000000000000000
102
{BLKREFS
331
3661
102
}
1001
ACAD
1000
DesignCenter Data
1002
{
1070
     1
1070
     1
1002
}
  0
BLOCK_RECORD
  5
6DD
330
1
100
AcDbSymbolTableRecord
100
AcDbBlockTableRecord
  2
WB POCKET
340
0
310
2800000020000000200000000100080000000000000400000000000000000000000000000000000000000000000080000080000000808000800000008000800080800000C0C0C000C0DCC000F0CAA6000020400000206000002080000020A0000020C0000020E00000400000004020000040400000406000004080000040A0
310
000040C0000040E00000600000006020000060400000606000006080000060A0000060C0000060E00000800000008020000080400000806000008080000080A0000080C0000080E00000A0000000A0200000A0400000A0600000A0800000A0A00000A0C00000A0E00000C0000000C0200000C0400000C0600000C0800000C0
310
A00000C0C00000C0E00000E0000000E0200000E0400000E0600000E0800000E0A00000E0C00000E0E00040000000400020004000400040006000400080004000A0004000C0004000E00040200000402020004020400040206000402080004020A0004020C0004020E000404000004040200040404000404060004040800040
310
40A0004040C0004040E00040600000406020004060400040606000406080004060A0004060C0004060E00040800000408020004080400040806000408080004080A0004080C0004080E00040A0000040A0200040A0400040A0600040A0800040A0A00040A0C00040A0E00040C0000040C0200040C0400040C0600040C08000
310
40C0A00040C0C00040C0E00040E0000040E0200040E0400040E0600040E0800040E0A00040E0C00040E0E00080000000800020008000400080006000800080008000A0008000C0008000E00080200000802020008020400080206000802080008020A0008020C0008020E00080400000804020008040400080406000804080
310
008040A0008040C0008040E00080600000806020008060400080606000806080008060A0008060C0008060E00080800000808020008080400080806000808080008080A0008080C0008080E00080A0000080A0200080A0400080A0600080A0800080A0A00080A0C00080A0E00080C0000080C0200080C0400080C0600080C0
310
800080C0A00080C0C00080C0E00080E0000080E0200080E0400080E0600080E0800080E0A00080E0C00080E0E000C0000000C0002000C0004000C0006000C0008000C000A000C000C000C000E000C0200000C0202000C0204000C0206000C0208000C020A000C020C000C020E000C0400000C0402000C0404000C0406000C0
310
408000C040A000C040C000C040E000C0600000C0602000C0604000C0606000C0608000C060A000C060C000C060E000C0800000C0802000C0804000C0806000C0808000C080A000C080C000C080E000C0A00000C0A02000C0A04000C0A06000C0A08000C0A0A000C0A0C000C0A0E000C0C00000C0C02000C0C04000C0C06000
310
C0C08000C0C0A000F0FBFF00A4A0A000808080000000FF0000FF000000FFFF00FF000000FF00FF00FFFF0000FFFFFF0000000000000000000000000000000000000000000000000000000000000000000000000000000000000000000000000000000000000000000000000000000000000000000000000000000000000000
310
00000000000000000000000000000000000000000000000000000000000000000000000000000000000000000000000000000000000000000000000000000000000000000000000000000000000000000000000000000000000000000000000000000000000000000000000000000000000000000000000000000000000000
310
00000000000000000000000000000000000000000000000000000000000000000000000000000000000000000000000000000000000000000000000000000000000000000000000000000000000000000000000000000000000000000000000000000000000000000000000000000000000000000000000000000000000000
310
0000000000000000000000000000000000000000FBFBFBFBFBFBFBFBFBFBFBFBFBFBFBFBFBFBFBFBFBFBFBFBFBFBFBFBFBFB0000FBFBFBFBFBFBFBFBFBFBFBFBFBFBFBFBFBFBFBFBFBFBFBFBFBFBFBFBFBFB0000FBFB000000000000000000000000000000000000000000000000000000000000FBFB000000000000000000
310
000000000000000000000000000000000000000000FBFB000000000000000000000000000000000000000000000000000000000000FBFBFBFBFBFBFBFBFBFBFBFBFBFBFBFBFBFBFBFBFBFBFBFBFBFBFBFBFBFB0000FBFB000000000000000000000000000000000000000000000000000000000000FBFB0000000000000000
310
00000000000000000000000000000000000000000000FBFBFBFBFBFBFBFBFBFBFBFBFBFBFBFBFBFBFBFBFBFBFBFBFBFBFBFBFBFB0000FBFBFBFBFBFBFBFBFBFBFBFBFBFBFBFBFBFBFBFBFBFBFBFBFBFBFBFBFBFB00000000000000000000000000000000000000000000000000000000000000000000000000000000000000
310
00000000000000000000000000000000000000000000000000000000000000000000000000000000000000000000000000000000000000000000000000000000000000000000000000000000000000000000000000000000000000000000000000000000000000000000000000000000000000000000000000000000000000
310
00000000000000000000000000000000000000000000000000000000000000000000000000000000000000000000000000000000000000000000000000000000000000000000000000000000000000000000000000000000000000000000000000000000000000000000000000000000000000000000000000000000000000
310
0000000000000000000000000000000000000000000000000000000000000000000000000000000000000000000000000000000000000000
102
{BLKREFS
331
3674
102
}
1001
ACAD
1000
DesignCenter Data
1002
{
1070
     1
1070
     1
1002
}
  0
BLOCK_RECORD
  5
9E5
330
1
100
AcDbSymbolTableRecord
100
AcDbBlockTableRecord
  2
*D5
340
0
  0
BLOCK_RECORD
  5
1AAC
330
1
100
AcDbSymbolTableRecord
100
AcDbBlockTableRecord
  2
*D6
340
0
  0
BLOCK_RECORD
  5
1ABA
330
1
100
AcDbSymbolTableRecord
100
AcDbBlockTableRecord
  2
*D7
340
0
  0
BLOCK_RECORD
  5
1AF5
330
1
100
AcDbSymbolTableRecord
100
AcDbBlockTableRecord
  2
*D8
340
0
  0
BLOCK_RECORD
  5
1C63
330
1
100
AcDbSymbolTableRecord
100
AcDbBlockTableRecord
  2
*D9
340
0
  0
BLOCK_RECORD
  5
1C71
330
1
100
AcDbSymbolTableRecord
100
AcDbBlockTableRecord
  2
*D10
340
0
  0
BLOCK_RECORD
  5
1DCF
330
1
100
AcDbSymbolTableRecord
100
AcDbBlockTableRecord
  2
*D11
340
0
  0
BLOCK_RECORD
  5
1DDD
330
1
100
AcDbSymbolTableRecord
100
AcDbBlockTableRecord
  2
*D12
340
0
  0
BLOCK_RECORD
  5
1DF2
330
1
100
AcDbSymbolTableRecord
100
AcDbBlockTableRecord
  2
*D13
340
0
  0
BLOCK_RECORD
  5
346E
330
1
100
AcDbSymbolTableRecord
100
AcDbBlockTableRecord
  2
*D14
340
0
  0
BLOCK_RECORD
  5
3487
330
1
100
AcDbSymbolTableRecord
100
AcDbBlockTableRecord
  2
*D15
340
0
  0
BLOCK_RECORD
  5
351D
330
1
100
AcDbSymbolTableRecord
100
AcDbBlockTableRecord
  2
*D16
340
0
  0
BLOCK_RECORD
  5
3526
330
1
100
AcDbSymbolTableRecord
100
AcDbBlockTableRecord
  2
*D17
340
0
  0
BLOCK_RECORD
  5
3536
330
1
100
AcDbSymbolTableRecord
100
AcDbBlockTableRecord
  2
*D18
340
0
  0
BLOCK_RECORD
  5
358E
330
1
100
AcDbSymbolTableRecord
100
AcDbBlockTableRecord
  2
*D19
340
0
  0
BLOCK_RECORD
  5
359C
330
1
100
AcDbSymbolTableRecord
100
AcDbBlockTableRecord
  2
*D20
340
0
  0
BLOCK_RECORD
  5
35AA
330
1
100
AcDbSymbolTableRecord
100
AcDbBlockTableRecord
  2
*D21
340
0
  0
BLOCK_RECORD
  5
35BA
330
1
100
AcDbSymbolTableRecord
100
AcDbBlockTableRecord
  2
*D22
340
0
  0
BLOCK_RECORD
  5
35C8
330
1
100
AcDbSymbolTableRecord
100
AcDbBlockTableRecord
  2
*D23
340
0
  0
ENDTAB
  0
ENDSEC
  0
SECTION
  2
BLOCKS
  0
BLOCK
  5
20
330
1F
100
AcDbEntity
  8
0
100
AcDbBlockBegin
  2
*Model_Space
 70
     0
 10
0.0
 20
0.0
 30
0.0
  3
*Model_Space
  1

  0
ENDBLK
  5
21
330
1F
100
AcDbEntity
  8
0
100
AcDbBlockEnd
  0
BLOCK
  5
1C
330
1B
100
AcDbEntity
 67
     1
  8
0
100
AcDbBlockBegin
  2
*Paper_Space
 70
     0
 10
0.0
 20
0.0
 30
0.0
  3
*Paper_Space
  1

  0
ENDBLK
  5
1D
330
1B
100
AcDbEntity
 67
     1
  8
0
100
AcDbBlockEnd
  0
BLOCK
  5
24
330
23
100
AcDbEntity
 67
     1
  8
0
100
AcDbBlockBegin
  2
*Paper_Space0
 70
     0
 10
0.0
 20
0.0
 30
0.0
  3
*Paper_Space0
  1

  0
ENDBLK
  5
25
330
23
100
AcDbEntity
 67
     1
  8
0
100
AcDbBlockEnd
  0
BLOCK
  5
6B7
330
6B6
100
AcDbEntity
  8
0
100
AcDbBlockBegin
  2
EZ POCKET DETAIL
 70
     0
 10
0.0
 20
0.0
 30
0.0
  3
EZ POCKET DETAIL
  1

  0
CIRCLE
  5
35F1
330
6B6
100
AcDbEntity
  8
Dynamic Closures details
100
AcDbCircle
 10
24.80663485157975
 20
2.749999993957005
 30
0.0
 40
0.125
  0
LINE
  5
35F2
330
6B6
100
AcDbEntity
  8
Dynamic Closures details
100
AcDbLine
 10
24.98663485486033
 20
2.576506464736581
 30
0.0
 11
24.98663485486033
 21
-2.21434287597816
 31
0.0
  0
ARC
  5
35F3
330
6B6
100
AcDbEntity
  8
Dynamic Closures details
100
AcDbCircle
 10
24.80663485157975
 20
2.749999977061947
 30
0.0
 40
0.25
100
AcDbArc
 50
270.0
 51
0.0
  0
LINE
  5
35F4
330
6B6
100
AcDbEntity
  8
Dynamic Closures details
100
AcDbLine
 10
24.30663484694513
 20
2.5
 30
0.0
 11
24.80663485157975
 21
2.499999977061946
 31
0.0
  0
LINE
  5
35F5
330
6B6
100
AcDbEntity
  8
Dynamic Closures details
100
AcDbLine
 10
24.30663484694513
 20
3.0
 30
0.0
 11
24.80663485460125
 21
2.999999993957004
 31
0.0
  0
LINE
  5
35F6
330
6B6
100
AcDbEntity
  8
Dynamic Closures details
100
AcDbLine
 10
25.05663485621437
 20
2.384999855355488
 30
0.0
 11
25.05663485621437
 21
1.865000075770638
 31
0.0
  0
LINE
  5
35F7
330
6B6
100
AcDbEntity
  8
Dynamic Closures details
100
AcDbLine
 10
25.05663485621437
 20
1.835000049000172
 30
0.0
 11
25.05663485621437
 21
1.314999976085403
 31
0.0
  0
LINE
  5
35F8
330
6B6
100
AcDbEntity
  8
Dynamic Closures details
100
AcDbLine
 10
25.05663485621437
 20
1.284999949314908
 30
0.0
 11
25.05663485621437
 21
0.7649998764001396
 31
0.0
  0
LINE
  5
35F9
330
6B6
100
AcDbEntity
  8
Dynamic Closures details
100
AcDbLine
 10
25.05663485621437
 20
0.7349998496296735
 30
0.0
 11
25.05663485621437
 21
0.2150000700448231
 31
0.0
  0
LINE
  5
35FA
330
6B6
100
AcDbEntity
  8
Dynamic Closures details
100
AcDbLine
 10
25.05663485621437
 20
0.1850000432743855
 30
0.0
 11
25.05663485621437
 21
-0.3350000296404119
 31
0.0
  0
LINE
  5
35FB
330
6B6
100
AcDbEntity
  8
Dynamic Closures details
100
AcDbLine
 10
25.05663485621437
 20
-0.365000056410878
 30
0.0
 11
25.05663485621437
 21
-0.8849999826607017
 31
0.0
  0
LINE
  5
35FC
330
6B6
100
AcDbEntity
  8
Dynamic Closures details
100
AcDbLine
 10
25.05663485621437
 20
-0.9150000094311396
 30
0.0
 11
25.05663485621437
 21
-1.435000009013436
 31
0.0
  0
LINE
  5
35FD
330
6B6
100
AcDbEntity
  8
Dynamic Closures details
100
AcDbLine
 10
25.05663485621437
 20
-1.465000035783929
 30
0.0
 11
25.05663485621437
 21
-1.984999998699976
 31
0.0
  0
LINE
  5
35FE
330
6B6
100
AcDbEntity
  8
Dynamic Closures details
100
AcDbLine
 10
25.05663485621437
 20
-2.014999988804191
 30
0.0
 11
25.05663485621437
 21
-2.475000005886414
 31
0.0
  0
ARC
  5
35FF
330
6B6
100
AcDbEntity
  8
Dynamic Closures details
100
AcDbCircle
 10
24.68163485157975
 20
-2.500000006042597
 30
0.0
 40
0.3750000000000075
100
AcDbArc
 50
45.57299599919615
 51
180.0000000000043
  0
LINE
  5
3600
330
6B6
100
AcDbEntity
  8
Dynamic Closures details
100
AcDbLine
 10
24.30663484694513
 20
-2.500000006042597
 30
0.0
 11
24.30663484694513
 21
-2.975000002135459
 31
0.0
  0
LINE
  5
3601
330
6B6
100
AcDbEntity
  8
Dynamic Closures details
100
AcDbLine
 10
24.35163485043457
 20
-3.0
 30
0.0
 11
24.33163484480967
 21
-3.0
 31
0.0
  0
LINE
  5
3602
330
6B6
100
AcDbEntity
  8
Dynamic Closures details
100
AcDbLine
 10
24.37663484829914
 20
-2.500000006042597
 30
0.0
 11
24.37663484829914
 21
-2.975000002135459
 31
0.0
  0
ARC
  5
3603
330
6B6
100
AcDbEntity
  8
Dynamic Closures details
100
AcDbCircle
 10
24.68163485157975
 20
-2.500000006042597
 30
0.0
 40
0.3050000000000073
100
AcDbArc
 50
4.344752042623929
 51
180.0000000000053
  0
LINE
  5
3604
330
6B6
100
AcDbEntity
  8
Dynamic Closures details
100
AcDbLine
 10
25.03163485834979
 20
-2.500000006042597
 30
0.0
 11
25.01068651701347
 21
-2.500000006042597
 31
0.0
  0
LINE
  5
3605
330
6B6
100
AcDbEntity
  8
Dynamic Closures details
100
AcDbLine
 10
25.05663485621437
 20
2.749999985509476
 30
0.0
 11
25.05663485621437
 21
2.414999882125925
 31
0.0
  0
ARC
  5
3606
330
6B6
100
AcDbEntity
  8
Dynamic Closures details
100
AcDbCircle
 10
24.80663485157975
 20
2.749999993957005
 30
0.0
 40
0.25
100
AcDbArc
 50
0.0
 51
90.0
  0
ARC
  5
3607
330
6B6
100
AcDbEntity
  8
Dynamic Closures details
100
AcDbCircle
 10
24.96163485157975
 20
-2.214342868900871
 30
0.0
 40
0.0249999999999995
100
AcDbArc
 50
225.5729959991896
 51
0.0
  0
ARC
  5
3608
330
6B6
100
AcDbEntity
  8
Dynamic Closures details
100
AcDbCircle
 10
24.33163485157973
 20
-2.975000006042591
 30
0.0
 40
0.0250000000000004
100
AcDbArc
 50
180.0
 51
270.0
  0
ARC
  5
3609
330
6B6
100
AcDbEntity
  8
Dynamic Closures details
100
AcDbCircle
 10
24.35163485157974
 20
-2.975000006042591
 30
0.0
 40
0.0250000000000004
100
AcDbArc
 50
270.0
 51
0.0
  0
ARC
  5
360A
330
6B6
100
AcDbEntity
  8
Dynamic Closures details
100
AcDbCircle
 10
25.01068651925521
 20
-2.475000006042591
 30
0.0
 40
0.0250000000000004
100
AcDbArc
 50
184.3447520426188
 51
270.0
  0
ARC
  5
360B
330
6B6
100
AcDbEntity
  8
Dynamic Closures details
100
AcDbCircle
 10
25.03163485157974
 20
-2.475000006042591
 30
0.0
 40
0.0250000000000004
100
AcDbArc
 50
270.0
 51
0.0
  0
LINE
  5
360C
330
6B6
100
AcDbEntity
  8
Dynamic Closures details
100
AcDbLine
 10
25.04918130565175
 20
-2.006666668404761
 30
0.0
 11
25.05663485621437
 21
-2.014999988804191
 31
0.0
  0
ARC
  5
360D
330
6B6
100
AcDbEntity
  8
Dynamic Closures details
100
AcDbCircle
 10
25.05663485157961
 20
-2.000000006042597
 30
0.0
 40
0.0100000000000006
100
AcDbArc
 50
138.1896851036164
 51
221.8103148963836
  0
LINE
  5
360E
330
6B6
100
AcDbEntity
  8
Dynamic Closures details
100
AcDbLine
 10
25.05663485621437
 20
-1.984999998699976
 30
0.0
 11
25.04918130565175
 21
-1.993333355765657
 31
0.0
  0
LINE
  5
360F
330
6B6
100
AcDbEntity
  8
Dynamic Closures details
100
AcDbLine
 10
25.04918130565175
 20
-1.45666667871825
 30
0.0
 11
25.05663485621437
 21
-1.465000035783929
 31
0.0
  0
ARC
  5
3610
330
6B6
100
AcDbEntity
  8
Dynamic Closures details
100
AcDbCircle
 10
25.05663485157961
 20
-1.450000006042614
 30
0.0
 40
0.01
100
AcDbArc
 50
138.1896851036164
 51
221.8103148961672
  0
LINE
  5
3611
330
6B6
100
AcDbEntity
  8
Dynamic Closures details
100
AcDbLine
 10
25.05663485621437
 20
-1.435000009013436
 30
0.0
 11
25.04918130565175
 21
-1.443333366079115
 31
0.0
  0
LINE
  5
3612
330
6B6
100
AcDbEntity
  8
Dynamic Closures details
100
AcDbLine
 10
25.04918130565175
 20
-0.9066666523654591
 30
0.0
 11
25.05663485621437
 21
-0.9150000094311396
 31
0.0
  0
ARC
  5
3613
330
6B6
100
AcDbEntity
  8
Dynamic Closures details
100
AcDbCircle
 10
25.05663485157961
 20
-0.9000000060426032
 30
0.0
 40
0.01
100
AcDbArc
 50
138.1896851036164
 51
221.8103148963836
  0
LINE
  5
3614
330
6B6
100
AcDbEntity
  8
Dynamic Closures details
100
AcDbLine
 10
25.05663485621437
 20
-0.8849999826607017
 30
0.0
 11
25.04918130565175
 21
-0.8933333397263822
 31
0.0
  0
LINE
  5
3615
330
6B6
100
AcDbEntity
  8
Dynamic Closures details
100
AcDbLine
 10
25.04918130565175
 20
-0.3566666993451975
 30
0.0
 11
25.05663485621437
 21
-0.365000056410878
 31
0.0
  0
ARC
  5
3616
330
6B6
100
AcDbEntity
  8
Dynamic Closures details
100
AcDbCircle
 10
25.05663485157961
 20
-0.3500000060425918
 30
0.0
 40
0.01
100
AcDbArc
 50
138.1896851038328
 51
221.8103148963836
  0
LINE
  5
3617
330
6B6
100
AcDbEntity
  8
Dynamic Closures details
100
AcDbLine
 10
25.05663485621437
 20
-0.3350000296404119
 30
0.0
 11
25.04918130565175
 21
-0.3433333867060924
 31
0.0
  0
LINE
  5
3618
330
6B6
100
AcDbEntity
  8
Dynamic Closures details
100
AcDbLine
 10
25.04918130565175
 20
0.193333253675064
 30
0.0
 11
25.05663485621437
 21
0.1850000432743855
 31
0.0
  0
ARC
  5
3619
330
6B6
100
AcDbEntity
  8
Dynamic Closures details
100
AcDbCircle
 10
25.05663485157961
 20
0.1999999939573911
 30
0.0
 40
0.01
100
AcDbArc
 50
138.1896851036164
 51
221.8103148963836
  0
LINE
  5
361A
330
6B6
100
AcDbEntity
  8
Dynamic Closures details
100
AcDbLine
 10
25.05663485621437
 20
0.2150000700448231
 30
0.0
 11
25.04918130565175
 21
0.2066665663141976
 31
0.0
  0
LINE
  5
361B
330
6B6
100
AcDbEntity
  8
Dynamic Closures details
100
AcDbLine
 10
25.04918130565175
 20
0.7433333533603275
 30
0.0
 11
25.05663485621437
 21
0.7349998496296735
 31
0.0
  0
ARC
  5
361C
330
6B6
100
AcDbEntity
  8
Dynamic Closures details
100
AcDbCircle
 10
25.05663485157961
 20
0.7499999939574025
 30
0.0
 40
0.01
100
AcDbArc
 50
138.1896851036164
 51
221.8103148963836
  0
LINE
  5
361D
330
6B6
100
AcDbEntity
  8
Dynamic Closures details
100
AcDbLine
 10
25.05663485621437
 20
0.7649998764001396
 30
0.0
 11
25.04918130565175
 21
0.7566666659994326
 31
0.0
  0
LINE
  5
361E
330
6B6
100
AcDbEntity
  8
Dynamic Closures details
100
AcDbLine
 10
25.04918130565175
 20
1.29333345304559
 30
0.0
 11
25.05663485621437
 21
1.284999949314908
 31
0.0
  0
ARC
  5
361F
330
6B6
100
AcDbEntity
  8
Dynamic Closures details
100
AcDbCircle
 10
25.05663485157961
 20
1.299999993957384
 30
0.0
 40
0.01
100
AcDbArc
 50
138.1896851036164
 51
221.8103148961672
  0
LINE
  5
3620
330
6B6
100
AcDbEntity
  8
Dynamic Closures details
100
AcDbLine
 10
25.05663485621437
 20
1.314999976085403
 30
0.0
 11
25.04918130565175
 21
1.306666765684667
 31
0.0
  0
LINE
  5
3621
330
6B6
100
AcDbEntity
  8
Dynamic Closures details
100
AcDbLine
 10
25.04918130565175
 20
1.843333259400879
 30
0.0
 11
25.05663485621437
 21
1.835000049000172
 31
0.0
  0
ARC
  5
3622
330
6B6
100
AcDbEntity
  8
Dynamic Closures details
100
AcDbCircle
 10
25.05663485157961
 20
1.849999993957396
 30
0.0
 40
0.0100000000000003
100
AcDbArc
 50
138.1896851036164
 51
221.8103148963836
  0
LINE
  5
3623
330
6B6
100
AcDbEntity
  8
Dynamic Closures details
100
AcDbLine
 10
25.05663485621437
 20
1.865000075770638
 30
0.0
 11
25.04918130565175
 21
1.856666572039984
 31
0.0
  0
LINE
  5
3624
330
6B6
100
AcDbEntity
  8
Dynamic Closures details
100
AcDbLine
 10
25.04918130565175
 20
2.393333359086114
 30
0.0
 11
25.05663485621437
 21
2.384999855355488
 31
0.0
  0
ARC
  5
3625
330
6B6
100
AcDbEntity
  8
Dynamic Closures details
100
AcDbCircle
 10
25.05663485157961
 20
2.399999993957408
 30
0.0
 40
0.0100000000000006
100
AcDbArc
 50
138.1896851036164
 51
221.8103148963836
  0
LINE
  5
3626
330
6B6
100
AcDbEntity
  8
Dynamic Closures details
100
AcDbLine
 10
25.05663485621437
 20
2.414999882125925
 30
0.0
 11
25.04918130565175
 21
2.406666671725247
 31
0.0
  0
LINE
  5
3627
330
6B6
100
AcDbEntity
  8
Dynamic Closures details
100
AcDbLine
 10
24.30663484694513
 20
2.5
 30
0.0
 11
24.30663484694513
 21
3.0
 31
0.0
  0
LINE
  5
3628
330
6B6
100
AcDbEntity
  8
Dynamic Closures details
100
AcDbLine
 10
24.30663484694513
 20
-3.0
 30
0.0
 11
24.30663484694513
 21
-2.5
 31
0.0
  0
LINE
  5
3629
330
6B6
100
AcDbEntity
  8
Dynamic Closures details
100
AcDbLine
 10
-0.4999999999999929
 20
3.0
 30
0.0
 11
-0.4999999999999929
 21
-3.0
 31
0.0
  0
LINE
  5
362A
330
6B6
100
AcDbEntity
  8
Dynamic Closures details
100
AcDbLine
 10
0.0
 20
2.5
 30
0.0
 11
0.0
 21
-2.5
 31
0.0
  0
LINE
  5
362B
330
6B6
100
AcDbEntity
  8
Dynamic Closures details
100
AcDbLine
 10
-0.5
 20
3.0
 30
0.0
 11
24.30663484694513
 21
3.0
 31
0.0
  0
LINE
  5
362C
330
6B6
100
AcDbEntity
  8
Dynamic Closures details
100
AcDbLine
 10
0.0
 20
2.5
 30
0.0
 11
24.30663484694513
 21
2.5
 31
0.0
  0
LINE
  5
362D
330
6B6
100
AcDbEntity
  8
Dynamic Closures details
100
AcDbLine
 10
-0.5
 20
-3.0
 30
0.0
 11
24.30663484694513
 21
-3.0
 31
0.0
  0
LINE
  5
362E
330
6B6
100
AcDbEntity
  8
Dynamic Closures details
100
AcDbLine
 10
0.0
 20
-2.5
 30
0.0
 11
24.30663484694513
 21
-2.5
 31
0.0
  0
LINE
  5
362F
330
6B6
100
AcDbEntity
  8
Dynamic Closures details
  6
CENTER
100
AcDbLine
 10
0.0
 20
0.0
 30
0.0
 11
24.30663484694513
 21
0.0
 31
0.0
  0
LINE
  5
3630
330
6B6
100
AcDbEntity
  8
Dynamic Closures details
100
AcDbLine
 10
1.902948922287034
 20
2.265753887756404
 30
0.0
 11
2.222751476992367
 21
-1.984246112243596
 31
0.0
  0
LINE
  5
3631
330
6B6
100
AcDbEntity
  8
Dynamic Closures details
100
AcDbLine
 10
1.583146367581686
 20
-1.984246112243596
 30
0.0
 11
1.902948922287034
 21
2.265753887756404
 31
0.0
  0
LINE
  5
3632
330
6B6
100
AcDbEntity
  8
Dynamic Closures details
100
AcDbLine
 10
2.542554031697701
 20
2.265753887756404
 30
0.0
 11
2.222751476992367
 21
-1.984246112243596
 31
0.0
  0
LINE
  5
3633
330
6B6
100
AcDbEntity
  8
Dynamic Closures details
100
AcDbLine
 10
2.862356586403048
 20
-1.984246112243596
 30
0.0
 11
2.542554031697701
 21
2.265753887756404
 31
0.0
  0
LINE
  5
3634
330
6B6
100
AcDbEntity
  8
Dynamic Closures details
100
AcDbLine
 10
1.263343812876339
 20
2.265753887756404
 30
0.0
 11
0.9435412581710059
 21
-1.984246112243596
 31
0.0
  0
LINE
  5
3635
330
6B6
100
AcDbEntity
  8
Dynamic Closures details
100
AcDbLine
 10
1.583146367581686
 20
-1.984246112243596
 30
0.0
 11
1.263343812876339
 21
2.265753887756404
 31
0.0
  0
LINE
  5
3636
330
6B6
100
AcDbEntity
  8
Dynamic Closures details
100
AcDbLine
 10
3.182159141108353
 20
2.265753887756404
 30
0.0
 11
3.486095289868667
 21
0.1417276509878889
 31
0.0
  0
LINE
  5
3637
330
6B6
100
AcDbEntity
  8
Dynamic Closures details
100
AcDbLine
 10
2.862356586403006
 20
-1.984246112243596
 30
0.0
 11
3.182159141108353
 21
2.265753887756404
 31
0.0
  0
LINE
  5
3638
330
6B6
100
AcDbEntity
  8
Dynamic Closures details
100
AcDbLine
 10
0.6237387034656728
 20
2.265753887756404
 30
0.0
 11
0.9435412581710059
 21
-1.984246112243596
 31
0.0
  0
LINE
  5
3639
330
6B6
100
AcDbEntity
  8
Dynamic Closures details
100
AcDbLine
 10
0.3039361487603252
 20
-1.984246112243596
 30
0.0
 11
0.6237387034656728
 21
2.265753887756404
 31
0.0
  0
LINE
  5
363A
330
6B6
100
AcDbEntity
  8
Dynamic Closures details
100
AcDbLine
 10
-0.0000000000000036
 20
0.1397801245249468
 30
0.0
 11
0.3039361487603252
 21
-1.984246112243596
 31
0.0
  0
ENDBLK
  5
6B8
330
6B6
100
AcDbEntity
  8
0
100
AcDbBlockEnd
  0
BLOCK
  5
6C4
330
6C3
100
AcDbEntity
  8
0
100
AcDbBlockBegin
  2
SL POCKET
 70
     0
 10
0.0
 20
0.0
 30
0.0
  3
SL POCKET
  1

  0
HATCH
  5
363C
330
6C3
100
AcDbEntity
  8
Dynamic Closures details
100
AcDbHatch
 10
0.0
 20
0.0
 30
0.0
210
0.0
220
0.0
230
1.0
  2
ANSI31
 70
     0
 71
     0
 91
        1
 92
        7
 72
     0
 73
     1
 93
        8
 10
24.30663484694513
 20
2.5
 10
24.30663484694513
 20
4.5
 10
-1.5
 20
4.5
 10
-1.5
 20
-4.5
 10
24.30663484694513
 20
-4.5
 10
24.30663484694513
 20
-2.5
 10
0.0
 20
-2.5
 10
0.0
 20
2.5
 97
        0
 75
     0
 76
     1
 52
0.0
 41
10.0
 77
     0
 78
     1
 53
45.0
 43
10.61529068418059
 44
-131.5679257045985
 45
-0.8838834764831842
 46
0.8838834764831844
 79
     0
 47
0.0
 98
        1
 10
10.72476239491023
 20
4.085450870862558
1001
ACAD
1010
0.0
1020
0.0
1030
0.0
  0
LINE
  5
363D
330
6C3
100
AcDbEntity
  8
Dynamic Closures details
100
AcDbLine
 10
24.30663484694513
 20
2.5
 30
0.0
 11
24.30663484694513
 21
4.5
 31
0.0
  0
LINE
  5
363E
330
6C3
100
AcDbEntity
  8
Dynamic Closures details
100
AcDbLine
 10
24.30663484694513
 20
-4.5
 30
0.0
 11
24.30663484694513
 21
-2.5
 31
0.0
  0
LINE
  5
363F
330
6C3
100
AcDbEntity
  8
Dynamic Closures details
100
AcDbLine
 10
0.0
 20
2.5
 30
0.0
 11
0.0
 21
-2.5
 31
0.0
  0
LINE
  5
3640
330
6C3
100
AcDbEntity
  8
Dynamic Closures details
100
AcDbLine
 10
0.0
 20
2.5
 30
0.0
 11
24.30663484694513
 21
2.5
 31
0.0
  0
LINE
  5
3641
330
6C3
100
AcDbEntity
  8
Dynamic Closures details
100
AcDbLine
 10
0.0
 20
-2.5
 30
0.0
 11
24.30663484694513
 21
-2.5
 31
0.0
  0
LINE
  5
3642
330
6C3
100
AcDbEntity
  8
Dynamic Closures details
  6
CENTER
100
AcDbLine
 10
0.0
 20
0.0
 30
0.0
 11
24.30663484694513
 21
0.0
 31
0.0
  0
LINE
  5
3643
330
6C3
100
AcDbEntity
  8
Dynamic Closures details
100
AcDbLine
 10
1.902948922287034
 20
2.125973763231456
 30
0.0
 11
2.222751476992367
 21
-2.124026236768543
 31
0.0
  0
LINE
  5
3644
330
6C3
100
AcDbEntity
  8
Dynamic Closures details
100
AcDbLine
 10
1.583146367581686
 20
-2.124026236768543
 30
0.0
 11
1.902948922287034
 21
2.125973763231456
 31
0.0
  0
LINE
  5
3645
330
6C3
100
AcDbEntity
  8
Dynamic Closures details
100
AcDbLine
 10
2.542554031697701
 20
2.125973763231456
 30
0.0
 11
2.222751476992367
 21
-2.124026236768543
 31
0.0
  0
LINE
  5
3646
330
6C3
100
AcDbEntity
  8
Dynamic Closures details
100
AcDbLine
 10
2.862356586403048
 20
-2.124026236768543
 30
0.0
 11
2.542554031697701
 21
2.125973763231456
 31
0.0
  0
LINE
  5
3647
330
6C3
100
AcDbEntity
  8
Dynamic Closures details
100
AcDbLine
 10
1.263343812876339
 20
2.125973763231456
 30
0.0
 11
0.9435412581710059
 21
-2.124026236768543
 31
0.0
  0
LINE
  5
3648
330
6C3
100
AcDbEntity
  8
Dynamic Closures details
100
AcDbLine
 10
1.583146367581686
 20
-2.124026236768543
 30
0.0
 11
1.263343812876339
 21
2.125973763231456
 31
0.0
  0
LINE
  5
3649
330
6C3
100
AcDbEntity
  8
Dynamic Closures details
100
AcDbLine
 10
3.182159141108353
 20
2.125973763231456
 30
0.0
 11
3.486095289868667
 21
0.0019475264629421
 31
0.0
  0
LINE
  5
364A
330
6C3
100
AcDbEntity
  8
Dynamic Closures details
100
AcDbLine
 10
2.862356586403006
 20
-2.124026236768543
 30
0.0
 11
3.182159141108353
 21
2.125973763231456
 31
0.0
  0
LINE
  5
364B
330
6C3
100
AcDbEntity
  8
Dynamic Closures details
100
AcDbLine
 10
0.6237387034656728
 20
2.125973763231456
 30
0.0
 11
0.9435412581710059
 21
-2.124026236768543
 31
0.0
  0
LINE
  5
364C
330
6C3
100
AcDbEntity
  8
Dynamic Closures details
100
AcDbLine
 10
0.3039361487603252
 20
-2.124026236768543
 30
0.0
 11
0.6237387034656728
 21
2.125973763231456
 31
0.0
  0
LINE
  5
364D
330
6C3
100
AcDbEntity
  8
Dynamic Closures details
100
AcDbLine
 10
-0.0000000000000036
 20
0.0
 30
0.0
 11
0.3039361487603252
 21
-2.124026236768543
 31
0.0
  0
ENDBLK
  5
6C5
330
6C3
100
AcDbEntity
  8
0
100
AcDbBlockEnd
  0
BLOCK
  5
6D1
330
6D0
100
AcDbEntity
  8
0
100
AcDbBlockBegin
  2
STD POCKET
 70
     0
 10
0.0
 20
0.0
 30
0.0
  3
STD POCKET
  1

  0
HATCH
  5
364F
330
6D0
100
AcDbEntity
  8
Dynamic Closures details
100
AcDbHatch
 10
0.0
 20
0.0
 30
0.0
210
0.0
220
0.0
230
1.0
  2
ANSI31
 70
     0
 71
     0
 91
        1
 92
        7
 72
     0
 73
     1
 93
        8
 10
24.30663484694513
 20
4.0
 10
24.30663484694513
 20
6.0
 10
-1.5
 20
6.0
 10
-1.5
 20
-6.0
 10
24.30663484694513
 20
-6.0
 10
24.30663484694513
 20
-4.0
 10
0.0
 20
-4.0
 10
0.0
 20
4.0
 97
        0
 75
     0
 76
     1
 52
0.0
 41
10.0
 77
     0
 78
     1
 53
45.0
 43
10.61529068418059
 44
-107.8411190669193
 45
-0.8838834764831842
 46
0.8838834764831844
 79
     0
 47
0.0
 98
        1
 10
12.79793184580253
 20
5.007393548726441
1001
ACAD
1010
0.0
1020
0.0
1030
0.0
  0
LINE
  5
3650
330
6D0
100
AcDbEntity
  8
Dynamic Closures details
100
AcDbLine
 10
24.30663484694513
 20
4.0
 30
0.0
 11
24.30663484694513
 21
6.0
 31
0.0
  0
LINE
  5
3651
330
6D0
100
AcDbEntity
  8
Dynamic Closures details
100
AcDbLine
 10
24.30663484694513
 20
-6.0
 30
0.0
 11
24.30663484694513
 21
-4.0
 31
0.0
  0
LINE
  5
3652
330
6D0
100
AcDbEntity
  8
Dynamic Closures details
100
AcDbLine
 10
0.0
 20
4.0
 30
0.0
 11
0.0
 21
-4.0
 31
0.0
  0
LINE
  5
3653
330
6D0
100
AcDbEntity
  8
Dynamic Closures details
100
AcDbLine
 10
0.0
 20
4.0
 30
0.0
 11
24.30663484694513
 21
4.0
 31
0.0
  0
LINE
  5
3654
330
6D0
100
AcDbEntity
  8
Dynamic Closures details
100
AcDbLine
 10
0.0
 20
-4.0
 30
0.0
 11
24.30663484694513
 21
-4.0
 31
0.0
  0
LINE
  5
3655
330
6D0
100
AcDbEntity
  8
Dynamic Closures details
  6
CENTER
100
AcDbLine
 10
0.0
 20
0.0
 30
0.0
 11
24.30663484694513
 21
0.0
 31
0.0
  0
LINE
  5
3656
330
6D0
100
AcDbEntity
  8
Dynamic Closures details
100
AcDbLine
 10
6.09892075008074
 20
3.77108538291543
 30
0.0
 11
6.61699720061495
 21
0.1312811906943523
 31
0.0
  0
LINE
  5
3657
330
6D0
100
AcDbEntity
  8
Dynamic Closures details
100
AcDbLine
 10
5.469603235386575
 20
-3.265678104360973
 30
0.0
 11
6.09892075008074
 21
3.77108538291543
 31
0.0
  0
LINE
  5
3658
330
6D0
100
AcDbEntity
  8
Dynamic Closures details
100
AcDbLine
 10
4.842593320168771
 20
3.771382184693266
 30
0.0
 11
5.469603235386575
 21
-3.265678104360973
 31
0.0
  0
LINE
  5
3659
330
6D0
100
AcDbEntity
  8
Dynamic Closures details
100
AcDbLine
 10
4.211640574500779
 20
-3.2656180049361
 30
0.0
 11
4.842593320168771
 21
3.771382184693266
 31
0.0
  0
LINE
  5
365A
330
6D0
100
AcDbEntity
  8
Dynamic Closures details
100
AcDbLine
 10
3.582995428307715
 20
3.771205581763922
 30
0.0
 11
4.211640574500779
 21
-3.2656180049361
 31
0.0
  0
LINE
  5
365B
330
6D0
100
AcDbEntity
  8
Dynamic Closures details
100
AcDbLine
 10
2.95367791361355
 20
-3.265557905512508
 30
0.0
 11
3.582995428307715
 21
3.771205581763922
 31
0.0
  0
LINE
  5
365C
330
6D0
100
AcDbEntity
  8
Dynamic Closures details
100
AcDbLine
 10
2.325032767414302
 20
3.771265681188311
 30
0.0
 11
2.95367791361355
 21
-3.265557905512508
 31
0.0
  0
LINE
  5
365D
330
6D0
100
AcDbEntity
  8
Dynamic Closures details
100
AcDbLine
 10
1.695715252720138
 20
-3.265497806088121
 30
0.0
 11
2.325032767414302
 21
3.771265681188311
 31
0.0
  0
LINE
  5
365E
330
6D0
100
AcDbEntity
  8
Dynamic Closures details
100
AcDbLine
 10
1.067070106518062
 20
3.771325780611959
 30
0.0
 11
1.695715252720138
 21
-3.265497806088121
 31
0.0
  0
LINE
  5
365F
330
6D0
100
AcDbEntity
  8
Dynamic Closures details
100
AcDbLine
 10
0.4331609129160904
 20
-3.264213687433653
 30
0.0
 11
1.067070106518062
 21
3.771325780611959
 31
0.0
  0
LINE
  5
3660
330
6D0
100
AcDbEntity
  8
Dynamic Closures details
100
AcDbLine
 10
0.0000000000000036
 20
0.0
 30
0.0
 11
0.4331609129160904
 21
-3.264213687433653
 31
0.0
  0
ENDBLK
  5
6D2
330
6D0
100
AcDbEntity
  8
0
100
AcDbBlockEnd
  0
BLOCK
  5
6DE
330
6DD
100
AcDbEntity
  8
0
100
AcDbBlockBegin
  2
WB POCKET
 70
     0
 10
0.0
 20
0.0
 30
0.0
  3
WB POCKET
  1

  0
HATCH
  5
3662
330
6DD
100
AcDbEntity
  8
Dynamic Closures details
100
AcDbHatch
 10
0.0
 20
0.0
 30
0.0
210
0.0
220
0.0
230
1.0
  2
ANSI31
 70
     0
 71
     0
 91
        1
 92
        7
 72
     0
 73
     1
 93
        8
 10
24.30663484694515
 20
6.500000000000042
 10
24.30663484694515
 20
8.500000000000042
 10
-1.499999999999993
 20
8.500000000000042
 10
-1.499999999999995
 20
-8.499999999999957
 10
24.30663484694513
 20
-8.499999999999957
 10
24.30663484694513
 20
-6.499999999999957
 10
0.0
 20
-6.499999999999957
 10
0.0
 20
6.500000000000042
 97
        0
 75
     0
 76
     1
 52
0.0
 41
10.0
 77
     0
 78
     1
 53
45.0
 43
10.61529068418058
 44
-81.31991265795255
 45
-0.8838834764831842
 46
0.8838834764831844
 79
     0
 47
0.0
 98
        1
 10
12.50176478138933
 20
7.539067740225136
1001
ACAD
1010
0.0
1020
0.0
1030
0.0
  0
LINE
  5
3663
330
6DD
100
AcDbEntity
  8
Dynamic Closures details
100
AcDbLine
 10
24.30663484694515
 20
6.500000000000042
 30
0.0
 11
24.30663484694515
 21
8.500000000000042
 31
0.0
  0
LINE
  5
3664
330
6DD
100
AcDbEntity
  8
Dynamic Closures details
100
AcDbLine
 10
24.30663484694513
 20
-8.499999999999957
 30
0.0
 11
24.30663484694513
 21
-6.499999999999957
 31
0.0
  0
LINE
  5
3665
330
6DD
100
AcDbEntity
  8
Dynamic Closures details
100
AcDbLine
 10
0.0
 20
6.500000000000042
 30
0.0
 11
0.0
 21
-6.499999999999957
 31
0.0
  0
LINE
  5
3666
330
6DD
100
AcDbEntity
  8
Dynamic Closures details
100
AcDbLine
 10
0.0
 20
6.500000000000042
 30
0.0
 11
24.30663484694513
 21
6.500000000000042
 31
0.0
  0
LINE
  5
3667
330
6DD
100
AcDbEntity
  8
Dynamic Closures details
100
AcDbLine
 10
0.0
 20
-6.499999999999957
 30
0.0
 11
24.30663484694513
 21
-6.499999999999957
 31
0.0
  0
LINE
  5
3668
330
6DD
100
AcDbEntity
  8
Dynamic Closures details
  6
CENTER
100
AcDbLine
 10
0.0
 20
0.0000000000000426
 30
0.0
 11
24.30663484694513
 21
0.0000000000000426
 31
0.0
  0
LINE
  5
3669
330
6DD
100
AcDbEntity
  8
Dynamic Closures details
100
AcDbLine
 10
5.442601373166108
 20
-5.59233092443543
 30
0.0
 11
6.068462166254736
 21
5.611115552869208
 31
0.0
  0
LINE
  5
366A
330
6DD
100
AcDbEntity
  8
Dynamic Closures details
100
AcDbLine
 10
3.564568063858078
 20
5.611115552869208
 30
0.0
 11
4.19065432196778
 21
-5.592927034923946
 31
0.0
  0
LINE
  5
366B
330
6DD
100
AcDbEntity
  8
Dynamic Closures details
100
AcDbLine
 10
2.938707270769451
 20
-5.59233092443543
 30
0.0
 11
3.564568063858078
 21
5.611115552869208
 31
0.0
  0
LINE
  5
366C
330
6DD
100
AcDbEntity
  8
Dynamic Closures details
100
AcDbLine
 10
4.816740580077481
 20
5.611115552869208
 30
0.0
 11
4.19065432196778
 21
-5.592927034923946
 31
0.0
  0
LINE
  5
366D
330
6DD
100
AcDbEntity
  8
Dynamic Closures details
100
AcDbLine
 10
5.442601373166108
 20
-5.59233092443543
 30
0.0
 11
4.816740580077481
 21
5.611115552869208
 31
0.0
  0
LINE
  5
366E
330
6DD
100
AcDbEntity
  8
Dynamic Closures details
100
AcDbLine
 10
2.312846477680825
 20
5.611115552869208
 30
0.0
 11
1.686760219571123
 21
-5.592927034923946
 31
0.0
  0
LINE
  5
366F
330
6DD
100
AcDbEntity
  8
Dynamic Closures details
100
AcDbLine
 10
2.938707270769451
 20
-5.59233092443543
 30
0.0
 11
2.312846477680825
 21
5.611115552869208
 31
0.0
  0
LINE
  5
3670
330
6DD
100
AcDbEntity
  8
Dynamic Closures details
100
AcDbLine
 10
6.680522993807142
 20
0.274134557384528
 30
0.0
 11
6.070295072126778
 21
5.611471471959575
 31
0.0
  0
LINE
  5
3671
330
6DD
100
AcDbEntity
  8
Dynamic Closures details
100
AcDbLine
 10
1.060673961461422
 20
5.611115552869208
 30
0.0
 11
1.686760219571123
 21
-5.592927034923946
 31
0.0
  0
LINE
  5
3672
330
6DD
100
AcDbEntity
  8
Dynamic Closures details
100
AcDbLine
 10
0.4348131683727949
 20
-5.59233092443543
 30
0.0
 11
1.060673961461422
 21
5.611115552869208
 31
0.0
  0
LINE
  5
3673
330
6DD
100
AcDbEntity
  8
Dynamic Closures details
100
AcDbLine
 10
-0.0000000000000036
 20
0.0000000000000426
 30
0.0
 11
0.4348131683727949
 21
-5.59233092443543
 31
0.0
  0
ENDBLK
  5
6DF
330
6DD
100
AcDbEntity
  8
0
100
AcDbBlockEnd
  0
BLOCK
  5
9E6
330
9E5
100
AcDbEntity
  8
0
100
AcDbBlockBegin
  2
*D5
 70
     1
 10
0.0
 20
0.0
 30
0.0
  3
*D5
  1

  0
LINE
  5
9E7
330
9E5
100
AcDbEntity
  8
0
 62
     0
370
    -2
100
AcDbLine
 10
-62.35299437251828
 20
160.3041736609627
 30
0.0
 11
-62.35299437251828
 21
160.7260419126262
 31
0.0
  0
LINE
  5
9E8
330
9E5
100
AcDbEntity
  8
0
 62
     0
370
    -2
100
AcDbLine
 10
-61.7133892631076
 20
160.3041736609627
 30
0.0
 11
-61.7133892631076
 21
160.7260419126262
 31
0.0
  0
LINE
  5
9E9
330
9E5
100
AcDbEntity
  8
0
 62
     0
370
    -2
100
AcDbLine
 10
-61.7133892631076
 20
160.5460419126262
 30
0.0
 11
-61.53338926310761
 21
160.5460419126262
 31
0.0
  0
LINE
  5
9EA
330
9E5
100
AcDbEntity
  8
0
 62
     0
370
    -2
100
AcDbLine
 10
-62.17299437251828
 20
160.5460419126262
 30
0.0
 11
-61.8933892631076
 21
160.5460419126262
 31
0.0
  0
SOLID
  5
9EB
330
9E5
100
AcDbEntity
  8
0
 62
     0
100
AcDbTrace
 10
-62.17299437251828
 20
160.5760419126261
 30
0.0
 11
-62.17299437251828
 21
160.5160419126262
 31
0.0
 12
-62.35299437251828
 22
160.5460419126262
 32
0.0
 13
-62.35299437251828
 23
160.5460419126262
 33
0.0
  0
SOLID
  5
9EC
330
9E5
100
AcDbEntity
  8
0
 62
     0
100
AcDbTrace
 10
-61.8933892631076
 20
160.5160419126262
 30
0.0
 11
-61.8933892631076
 21
160.5760419126261
 31
0.0
 12
-61.7133892631076
 22
160.5460419126262
 32
0.0
 13
-61.7133892631076
 23
160.5460419126262
 33
0.0
  0
MTEXT
  5
9ED
330
9E5
100
AcDbEntity
  8
0
 62
     0
100
AcDbMText
 10
-61.0083892631076
 20
160.5460419126262
 30
0.0
 40
0.18
 41
0.0
 71
     5
 72
     1
  1
\A1;0.6396
 73
     1
 44
1.0
1001
ACAD
1000
MTEXTBEGIN
1070
    73
1070
     1
1070
    44
1040
1.0
1070
    74
1070
     0
1000
MTEXTEND
  0
POINT
  5
9EE
330
9E5
100
AcDbEntity
  8
Defpoints
 62
     0
100
AcDbPoint
 10
-62.35299437251828
 20
160.2416736609627
 30
0.0
  0
POINT
  5
9EF
330
9E5
100
AcDbEntity
  8
Defpoints
 62
     0
100
AcDbPoint
 10
-61.7133892631076
 20
160.2416736609627
 30
0.0
  0
POINT
  5
9F0
330
9E5
100
AcDbEntity
  8
Defpoints
 62
     0
100
AcDbPoint
 10
-61.7133892631076
 20
160.5460419126262
 30
0.0
  0
ENDBLK
  5
9F1
330
9E5
100
AcDbEntity
  8
0
100
AcDbBlockEnd
  0
BLOCK
  5
1AAD
330
1AAC
100
AcDbEntity
  8
0
100
AcDbBlockBegin
  2
*D6
 70
     1
 10
0.0
 20
0.0
 30
0.0
  3
*D6
  1

  0
LINE
  5
1AAE
330
1AAC
100
AcDbEntity
  8
0
 62
     0
370
    -2
100
AcDbLine
 10
-57.84971814307102
 20
155.9916736609627
 30
0.0
 11
-56.71849403671198
 21
155.9916736609627
 31
0.0
  0
LINE
  5
1AAF
330
1AAC
100
AcDbEntity
  8
0
 62
     0
370
    -2
100
AcDbLine
 10
-57.84971814307102
 20
160.2416736609627
 30
0.0
 11
-56.71849403671198
 21
160.2416736609627
 31
0.0
  0
LINE
  5
1AB0
330
1AAC
100
AcDbEntity
  8
0
 62
     0
370
    -2
100
AcDbLine
 10
-56.89849403671198
 20
156.1716736609627
 30
0.0
 11
-56.89849403671198
 21
158.9154686589811
 31
0.0
  0
LINE
  5
1AB1
330
1AAC
100
AcDbEntity
  8
0
 62
     0
370
    -2
100
AcDbLine
 10
-56.89849403671198
 20
160.0616736609627
 30
0.0
 11
-56.89849403671198
 21
159.2754686589811
 31
0.0
  0
SOLID
  5
1AB2
330
1AAC
100
AcDbEntity
  8
0
 62
     0
100
AcDbTrace
 10
-56.92849403671198
 20
156.1716736609627
 30
0.0
 11
-56.86849403671198
 21
156.1716736609627
 31
0.0
 12
-56.89849403671198
 22
155.9916736609627
 32
0.0
 13
-56.89849403671198
 23
155.9916736609627
 33
0.0
  0
SOLID
  5
1AB3
330
1AAC
100
AcDbEntity
  8
0
 62
     0
100
AcDbTrace
 10
-56.86849403671198
 20
160.0616736609627
 30
0.0
 11
-56.92849403671198
 21
160.0616736609627
 31
0.0
 12
-56.89849403671198
 22
160.2416736609627
 32
0.0
 13
-56.89849403671198
 23
160.2416736609627
 33
0.0
  0
MTEXT
  5
1AB4
330
1AAC
100
AcDbEntity
  8
0
 62
     0
100
AcDbMText
 10
-56.89849403671198
 20
159.0954686589811
 30
0.0
 40
0.18
 41
0.0
 71
     5
 72
     1
  1
\A1;4.2500
 73
     1
 44
1.0
1001
ACAD
1000
MTEXTBEGIN
1070
    73
1070
     1
1070
    44
1040
1.0
1070
    74
1070
     0
1000
MTEXTEND
  0
POINT
  5
1AB5
330
1AAC
100
AcDbEntity
  8
Defpoints
 62
     0
100
AcDbPoint
 10
-57.91221814307102
 20
155.9916736609627
 30
0.0
  0
POINT
  5
1AB6
330
1AAC
100
AcDbEntity
  8
Defpoints
 62
     0
100
AcDbPoint
 10
-57.91221814307102
 20
160.2416736609627
 30
0.0
  0
POINT
  5
1AB7
330
1AAC
100
AcDbEntity
  8
Defpoints
 62
     0
100
AcDbPoint
 10
-56.89849403671198
 20
160.2416736609627
 30
0.0
  0
ENDBLK
  5
1AB8
330
1AAC
100
AcDbEntity
  8
0
100
AcDbBlockEnd
  0
BLOCK
  5
1ABB
330
1ABA
100
AcDbEntity
  8
0
100
AcDbBlockBegin
  2
*D7
 70
     1
 10
0.0
 20
0.0
 30
0.0
  3
*D7
  1

  0
LINE
  5
1ABC
330
1ABA
100
AcDbEntity
  8
0
 62
     0
370
    -2
100
AcDbLine
 10
-53.18909970175647
 20
148.9356268667513
 30
0.0
 11
-52.75264020142337
 21
148.9356268667513
 31
0.0
  0
LINE
  5
1ABD
330
1ABA
100
AcDbEntity
  8
0
 62
     0
370
    -2
100
AcDbLine
 10
-53.18909970175647
 20
141.8980437186482
 30
0.0
 11
-52.75264020142337
 21
141.8980437186482
 31
0.0
  0
LINE
  5
1ABE
330
1ABA
100
AcDbEntity
  8
0
 62
     0
370
    -2
100
AcDbLine
 10
-52.93264020142337
 20
148.7556268667513
 30
0.0
 11
-52.93264020142337
 21
147.4268341105646
 31
0.0
  0
LINE
  5
1ABF
330
1ABA
100
AcDbEntity
  8
0
 62
     0
370
    -2
100
AcDbLine
 10
-52.93264020142337
 20
142.0780437186482
 30
0.0
 11
-52.93264020142337
 21
147.0668341105646
 31
0.0
  0
SOLID
  5
1AC0
330
1ABA
100
AcDbEntity
  8
0
 62
     0
100
AcDbTrace
 10
-52.90264020142337
 20
148.7556268667513
 30
0.0
 11
-52.96264020142337
 21
148.7556268667513
 31
0.0
 12
-52.93264020142337
 22
148.9356268667513
 32
0.0
 13
-52.93264020142337
 23
148.9356268667513
 33
0.0
  0
SOLID
  5
1AC1
330
1ABA
100
AcDbEntity
  8
0
 62
     0
100
AcDbTrace
 10
-52.96264020142337
 20
142.0780437186482
 30
0.0
 11
-52.90264020142337
 21
142.0780437186482
 31
0.0
 12
-52.93264020142337
 22
141.8980437186482
 32
0.0
 13
-52.93264020142337
 23
141.8980437186482
 33
0.0
  0
MTEXT
  5
1AC2
330
1ABA
100
AcDbEntity
  8
0
 62
     0
100
AcDbMText
 10
-52.93264020142337
 20
147.2468341105646
 30
0.0
 40
0.18
 41
0.0
 71
     5
 72
     1
  1
\A1;7.0376
 73
     1
 44
1.0
1001
ACAD
1000
MTEXTBEGIN
1070
    73
1070
     1
1070
    44
1040
1.0
1070
    74
1070
     0
1000
MTEXTEND
  0
POINT
  5
1AC3
330
1ABA
100
AcDbEntity
  8
Defpoints
 62
     0
100
AcDbPoint
 10
-53.25159970175647
 20
148.9356268667513
 30
0.0
  0
POINT
  5
1AC4
330
1ABA
100
AcDbEntity
  8
Defpoints
 62
     0
100
AcDbPoint
 10
-53.25159970175647
 20
141.8980437186482
 30
0.0
  0
POINT
  5
1AC5
330
1ABA
100
AcDbEntity
  8
Defpoints
 62
     0
100
AcDbPoint
 10
-52.93264020142337
 20
141.8980437186482
 30
0.0
  0
ENDBLK
  5
1AC6
330
1ABA
100
AcDbEntity
  8
0
100
AcDbBlockEnd
  0
BLOCK
  5
1AF6
330
1AF5
100
AcDbEntity
  8
0
100
AcDbBlockBegin
  2
*D8
 70
     1
 10
0.0
 20
0.0
 30
0.0
  3
*D8
  1

  0
LINE
  5
1AF7
330
1AF5
100
AcDbEntity
  8
0
 62
     0
370
    -2
100
AcDbLine
 10
-51.99963623037963
 20
134.8419969244368
 30
0.0
 11
-50.04421281512581
 21
134.8419969244368
 31
0.0
  0
LINE
  5
1AF8
330
1AF5
100
AcDbEntity
  8
0
 62
     0
370
    -2
100
AcDbLine
 10
-51.99963623037963
 20
123.637383266979
 30
0.0
 11
-50.04421281512581
 21
123.637383266979
 31
0.0
  0
LINE
  5
1AF9
330
1AF5
100
AcDbEntity
  8
0
 62
     0
370
    -2
100
AcDbLine
 10
-50.22421281512581
 20
134.6619969244368
 30
0.0
 11
-50.22421281512581
 21
132.2217950789673
 31
0.0
  0
LINE
  5
1AFA
330
1AF5
100
AcDbEntity
  8
0
 62
     0
370
    -2
100
AcDbLine
 10
-50.22421281512581
 20
123.817383266979
 30
0.0
 11
-50.22421281512581
 21
131.8617950789673
 31
0.0
  0
SOLID
  5
1AFB
330
1AF5
100
AcDbEntity
  8
0
 62
     0
100
AcDbTrace
 10
-50.19421281512581
 20
134.6619969244368
 30
0.0
 11
-50.25421281512581
 21
134.6619969244368
 31
0.0
 12
-50.22421281512581
 22
134.8419969244368
 32
0.0
 13
-50.22421281512581
 23
134.8419969244368
 33
0.0
  0
SOLID
  5
1AFC
330
1AF5
100
AcDbEntity
  8
0
 62
     0
100
AcDbTrace
 10
-50.25421281512581
 20
123.817383266979
 30
0.0
 11
-50.19421281512581
 21
123.817383266979
 31
0.0
 12
-50.22421281512581
 22
123.637383266979
 32
0.0
 13
-50.22421281512581
 23
123.637383266979
 33
0.0
  0
MTEXT
  5
1AFD
330
1AF5
100
AcDbEntity
  8
0
 62
     0
100
AcDbMText
 10
-50.22421281512581
 20
132.0417950789673
 30
0.0
 40
0.18
 41
0.0
 71
     5
 72
     1
  1
\A1;11.2046
 73
     1
 44
1.0
1001
ACAD
1000
MTEXTBEGIN
1070
    73
1070
     1
1070
    44
1040
1.0
1070
    74
1070
     0
1000
MTEXTEND
  0
POINT
  5
1AFE
330
1AF5
100
AcDbEntity
  8
Defpoints
 62
     0
100
AcDbPoint
 10
-52.06213623037964
 20
134.8419969244368
 30
0.0
  0
POINT
  5
1AFF
330
1AF5
100
AcDbEntity
  8
Defpoints
 62
     0
100
AcDbPoint
 10
-52.06213623037964
 20
123.637383266979
 30
0.0
  0
POINT
  5
1B00
330
1AF5
100
AcDbEntity
  8
Defpoints
 62
     0
100
AcDbPoint
 10
-50.22421281512581
 20
123.637383266979
 30
0.0
  0
ENDBLK
  5
1B01
330
1AF5
100
AcDbEntity
  8
0
100
AcDbBlockEnd
  0
BLOCK
  5
1C64
330
1C63
100
AcDbEntity
  8
0
100
AcDbBlockBegin
  2
*D9
 70
     1
 10
0.0
 20
0.0
 30
0.0
  3
*D9
  1

  0
LINE
  5
1C65
330
1C63
100
AcDbEntity
  8
0
 62
     0
370
    -2
100
AcDbLine
 10
-64.54628077340747
 20
120.6523869307497
 30
0.0
 11
-64.54628077340747
 21
122.4318933313724
 31
0.0
  0
LINE
  5
1C66
330
1C63
100
AcDbEntity
  8
0
 62
     0
370
    -2
100
AcDbLine
 10
-54.11818117642579
 20
119.6913328089824
 30
0.0
 11
-54.11818117642579
 21
122.4318933313724
 31
0.0
  0
LINE
  5
1C67
330
1C63
100
AcDbEntity
  8
0
 62
     0
370
    -2
100
AcDbLine
 10
-64.36628077340746
 20
122.2518933313724
 30
0.0
 11
-59.88723097491664
 21
122.2518933313724
 31
0.0
  0
LINE
  5
1C68
330
1C63
100
AcDbEntity
  8
0
 62
     0
370
    -2
100
AcDbLine
 10
-54.29818117642579
 20
122.2518933313724
 30
0.0
 11
-58.77723097491663
 21
122.2518933313724
 31
0.0
  0
SOLID
  5
1C69
330
1C63
100
AcDbEntity
  8
0
 62
     0
100
AcDbTrace
 10
-64.36628077340746
 20
122.2818933313724
 30
0.0
 11
-64.36628077340746
 21
122.2218933313724
 31
0.0
 12
-64.54628077340747
 22
122.2518933313724
 32
0.0
 13
-64.54628077340747
 23
122.2518933313724
 33
0.0
  0
SOLID
  5
1C6A
330
1C63
100
AcDbEntity
  8
0
 62
     0
100
AcDbTrace
 10
-54.29818117642579
 20
122.2218933313724
 30
0.0
 11
-54.29818117642579
 21
122.2818933313724
 31
0.0
 12
-54.11818117642579
 22
122.2518933313724
 32
0.0
 13
-54.11818117642579
 23
122.2518933313724
 33
0.0
  0
MTEXT
  5
1C6B
330
1C63
100
AcDbEntity
  8
0
 62
     0
100
AcDbMText
 10
-59.33223097491662
 20
122.2518933313724
 30
0.0
 40
0.18
 41
0.0
 71
     5
 72
     1
  1
\A1;10.4281
 73
     1
 44
1.0
1001
ACAD
1000
MTEXTBEGIN
1070
    73
1070
     1
1070
    44
1040
1.0
1070
    74
1070
     0
1000
MTEXTEND
  0
POINT
  5
1C6C
330
1C63
100
AcDbEntity
  8
Defpoints
 62
     0
100
AcDbPoint
 10
-64.54628077340747
 20
120.5898869307497
 30
0.0
  0
POINT
  5
1C6D
330
1C63
100
AcDbEntity
  8
Defpoints
 62
     0
100
AcDbPoint
 10
-54.11818117642579
 20
119.6288328089824
 30
0.0
  0
POINT
  5
1C6E
330
1C63
100
AcDbEntity
  8
Defpoints
 62
     0
100
AcDbPoint
 10
-54.11818117642579
 20
122.2518933313724
 30
0.0
  0
ENDBLK
  5
1C6F
330
1C63
100
AcDbEntity
  8
0
100
AcDbBlockEnd
  0
BLOCK
  5
1C72
330
1C71
100
AcDbEntity
  8
0
100
AcDbBlockBegin
  2
*D10
 70
     1
 10
0.0
 20
0.0
 30
0.0
  3
*D10
  1

  0
LINE
  5
1C73
330
1C71
100
AcDbEntity
  8
0
 62
     0
370
    -2
100
AcDbLine
 10
-64.52942519132363
 20
153.1609948420929
 30
0.0
 11
-64.52942519132363
 21
153.8233263193174
 31
0.0
  0
LINE
  5
1C74
330
1C71
100
AcDbEntity
  8
0
 62
     0
370
    -2
100
AcDbLine
 10
-61.03171972899787
 20
151.77338274594
 30
0.0
 11
-61.03171972899787
 21
153.8233263193174
 31
0.0
  0
LINE
  5
1C75
330
1C71
100
AcDbEntity
  8
0
 62
     0
370
    -2
100
AcDbLine
 10
-64.34942519132363
 20
153.6433263193174
 30
0.0
 11
-63.32057246016077
 21
153.6433263193174
 31
0.0
  0
LINE
  5
1C76
330
1C71
100
AcDbEntity
  8
0
 62
     0
370
    -2
100
AcDbLine
 10
-61.21171972899787
 20
153.6433263193174
 30
0.0
 11
-62.24057246016077
 21
153.6433263193174
 31
0.0
  0
SOLID
  5
1C77
330
1C71
100
AcDbEntity
  8
0
 62
     0
100
AcDbTrace
 10
-64.34942519132363
 20
153.6733263193174
 30
0.0
 11
-64.34942519132363
 21
153.6133263193174
 31
0.0
 12
-64.52942519132363
 22
153.6433263193174
 32
0.0
 13
-64.52942519132363
 23
153.6433263193174
 33
0.0
  0
SOLID
  5
1C78
330
1C71
100
AcDbEntity
  8
0
 62
     0
100
AcDbTrace
 10
-61.21171972899787
 20
153.6133263193174
 30
0.0
 11
-61.21171972899787
 21
153.6733263193174
 31
0.0
 12
-61.03171972899787
 22
153.6433263193174
 32
0.0
 13
-61.03171972899787
 23
153.6433263193174
 33
0.0
  0
MTEXT
  5
1C79
330
1C71
100
AcDbEntity
  8
0
 62
     0
100
AcDbMText
 10
-62.78057246016076
 20
153.6433263193174
 30
0.0
 40
0.18
 41
0.0
 71
     5
 72
     1
  1
\A1;3.4977
 73
     1
 44
1.0
1001
ACAD
1000
MTEXTBEGIN
1070
    73
1070
     1
1070
    44
1040
1.0
1070
    74
1070
     0
1000
MTEXTEND
  0
POINT
  5
1C7A
330
1C71
100
AcDbEntity
  8
Defpoints
 62
     0
100
AcDbPoint
 10
-64.52942519132363
 20
153.0984948420929
 30
0.0
  0
POINT
  5
1C7B
330
1C71
100
AcDbEntity
  8
Defpoints
 62
     0
100
AcDbPoint
 10
-61.03171972899787
 20
151.71088274594
 30
0.0
  0
POINT
  5
1C7C
330
1C71
100
AcDbEntity
  8
Defpoints
 62
     0
100
AcDbPoint
 10
-61.03171972899787
 20
153.6433263193174
 30
0.0
  0
ENDBLK
  5
1C7D
330
1C71
100
AcDbEntity
  8
0
100
AcDbBlockEnd
  0
BLOCK
  5
1DD0
330
1DCF
100
AcDbEntity
  8
0
100
AcDbBlockBegin
  2
*D11
 70
     1
 10
0.0
 20
0.0
 30
0.0
  3
*D11
  1

  0
LINE
  5
1DD1
330
1DCF
100
AcDbEntity
  8
0
 62
     0
370
    -2
100
AcDbLine
 10
-64.54630955112643
 20
138.6193430490823
 30
0.0
 11
-64.54630955112643
 21
139.7396796877641
 31
0.0
  0
LINE
  5
1DD2
330
1DCF
100
AcDbEntity
  8
0
 62
     0
370
    -2
100
AcDbLine
 10
-58.24088336481782
 20
138.2456975940057
 30
0.0
 11
-58.24088336481782
 21
139.7396796877641
 31
0.0
  0
LINE
  5
1DD3
330
1DCF
100
AcDbEntity
  8
0
 62
     0
370
    -2
100
AcDbLine
 10
-64.36630955112642
 20
139.5596796877641
 30
0.0
 11
-61.91859645797214
 21
139.5596796877641
 31
0.0
  0
LINE
  5
1DD4
330
1DCF
100
AcDbEntity
  8
0
 62
     0
370
    -2
100
AcDbLine
 10
-58.42088336481783
 20
139.5596796877641
 30
0.0
 11
-60.86859645797211
 21
139.5596796877641
 31
0.0
  0
SOLID
  5
1DD5
330
1DCF
100
AcDbEntity
  8
0
 62
     0
100
AcDbTrace
 10
-64.36630955112642
 20
139.5896796877641
 30
0.0
 11
-64.36630955112642
 21
139.5296796877641
 31
0.0
 12
-64.54630955112643
 22
139.5596796877641
 32
0.0
 13
-64.54630955112643
 23
139.5596796877641
 33
0.0
  0
SOLID
  5
1DD6
330
1DCF
100
AcDbEntity
  8
0
 62
     0
100
AcDbTrace
 10
-58.42088336481783
 20
139.5296796877641
 30
0.0
 11
-58.42088336481783
 21
139.5896796877641
 31
0.0
 12
-58.24088336481782
 22
139.5596796877641
 32
0.0
 13
-58.24088336481782
 23
139.5596796877641
 33
0.0
  0
MTEXT
  5
1DD7
330
1DCF
100
AcDbEntity
  8
0
 62
     0
100
AcDbMText
 10
-61.39359645797213
 20
139.5596796877641
 30
0.0
 40
0.18
 41
0.0
 71
     5
 72
     1
  1
\A1;6.3054
 73
     1
 44
1.0
1001
ACAD
1000
MTEXTBEGIN
1070
    73
1070
     1
1070
    44
1040
1.0
1070
    74
1070
     0
1000
MTEXTEND
  0
POINT
  5
1DD8
330
1DCF
100
AcDbEntity
  8
Defpoints
 62
     0
100
AcDbPoint
 10
-64.54630955112643
 20
138.5568430490823
 30
0.0
  0
POINT
  5
1DD9
330
1DCF
100
AcDbEntity
  8
Defpoints
 62
     0
100
AcDbPoint
 10
-58.24088336481782
 20
138.1831975940057
 30
0.0
  0
POINT
  5
1DDA
330
1DCF
100
AcDbEntity
  8
Defpoints
 62
     0
100
AcDbPoint
 10
-58.24088336481782
 20
139.5596796877641
 30
0.0
  0
ENDBLK
  5
1DDB
330
1DCF
100
AcDbEntity
  8
0
100
AcDbBlockEnd
  0
BLOCK
  5
1DDE
330
1DDD
100
AcDbEntity
  8
0
100
AcDbBlockBegin
  2
*D12
 70
     1
 10
0.0
 20
0.0
 30
0.0
  3
*D12
  1

  0
LINE
  5
1DDF
330
1DDD
100
AcDbEntity
  8
0
 62
     0
370
    -2
100
AcDbLine
 10
-59.9756315949164
 20
134.5289539014217
 30
0.0
 11
-59.9756315949164
 21
135.4607341189825
 31
0.0
  0
LINE
  5
1DE0
330
1DDD
100
AcDbEntity
  8
0
 62
     0
370
    -2
100
AcDbLine
 10
-58.72404772599478
 20
134.5289867797483
 30
0.0
 11
-58.72404772599478
 21
135.4607341189825
 31
0.0
  0
LINE
  5
1DE1
330
1DDD
100
AcDbEntity
  8
0
 62
     0
370
    -2
100
AcDbLine
 10
-59.9756315949164
 20
135.2807341189825
 30
0.0
 11
-60.33563159491641
 21
135.2807341189825
 31
0.0
  0
LINE
  5
1DE2
330
1DDD
100
AcDbEntity
  8
0
 62
     0
370
    -2
100
AcDbLine
 10
-58.72404772599478
 20
135.2807341189825
 30
0.0
 11
-58.36404772599478
 21
135.2807341189825
 31
0.0
  0
SOLID
  5
1DE3
330
1DDD
100
AcDbEntity
  8
0
 62
     0
100
AcDbTrace
 10
-60.15563159491641
 20
135.2507341189825
 30
0.0
 11
-60.15563159491641
 21
135.3107341189825
 31
0.0
 12
-59.9756315949164
 22
135.2807341189825
 32
0.0
 13
-59.9756315949164
 23
135.2807341189825
 33
0.0
  0
SOLID
  5
1DE4
330
1DDD
100
AcDbEntity
  8
0
 62
     0
100
AcDbTrace
 10
-58.54404772599478
 20
135.3107341189825
 30
0.0
 11
-58.54404772599478
 21
135.2507341189825
 31
0.0
 12
-58.72404772599478
 22
135.2807341189825
 32
0.0
 13
-58.72404772599478
 23
135.2807341189825
 33
0.0
  0
MTEXT
  5
1DE5
330
1DDD
100
AcDbEntity
  8
0
 62
     0
100
AcDbMText
 10
-59.34983966045559
 20
135.2807341189825
 30
0.0
 40
0.18
 41
0.0
 71
     5
 72
     1
  1
\A1;1.2516
 73
     1
 44
1.0
1001
ACAD
1000
MTEXTBEGIN
1070
    73
1070
     1
1070
    44
1040
1.0
1070
    74
1070
     0
1000
MTEXTEND
  0
POINT
  5
1DE6
330
1DDD
100
AcDbEntity
  8
Defpoints
 62
     0
100
AcDbPoint
 10
-59.9756315949164
 20
134.4664539014217
 30
0.0
  0
POINT
  5
1DE7
330
1DDD
100
AcDbEntity
  8
Defpoints
 62
     0
100
AcDbPoint
 10
-58.72404772599478
 20
134.4664867797483
 30
0.0
  0
POINT
  5
1DE8
330
1DDD
100
AcDbEntity
  8
Defpoints
 62
     0
100
AcDbPoint
 10
-58.72404772599478
 20
135.2807341189825
 30
0.0
  0
ENDBLK
  5
1DE9
330
1DDD
100
AcDbEntity
  8
0
100
AcDbBlockEnd
  0
BLOCK
  5
1DF3
330
1DF2
100
AcDbEntity
  8
0
100
AcDbBlockBegin
  2
*D13
 70
     1
 10
0.0
 20
0.0
 30
0.0
  3
*D13
  1

  0
LINE
  5
1DF4
330
1DF2
100
AcDbEntity
  8
0
 62
     0
370
    -2
100
AcDbLine
 10
-59.95910973443344
 20
148.6218967655811
 30
0.0
 11
-59.95910973443344
 21
149.5536769831419
 31
0.0
  0
LINE
  5
1DF5
330
1DF2
100
AcDbEntity
  8
0
 62
     0
370
    -2
100
AcDbLine
 10
-58.70114707354763
 20
148.6218366661562
 30
0.0
 11
-58.70114707354763
 21
149.5536769831419
 31
0.0
  0
LINE
  5
1DF6
330
1DF2
100
AcDbEntity
  8
0
 62
     0
370
    -2
100
AcDbLine
 10
-59.95910973443344
 20
149.3736769831418
 30
0.0
 11
-60.31910973443343
 21
149.3736769831418
 31
0.0
  0
LINE
  5
1DF7
330
1DF2
100
AcDbEntity
  8
0
 62
     0
370
    -2
100
AcDbLine
 10
-58.70114707354763
 20
149.3736769831418
 30
0.0
 11
-58.34114707354763
 21
149.3736769831418
 31
0.0
  0
SOLID
  5
1DF8
330
1DF2
100
AcDbEntity
  8
0
 62
     0
100
AcDbTrace
 10
-60.13910973443343
 20
149.3436769831418
 30
0.0
 11
-60.13910973443343
 21
149.4036769831418
 31
0.0
 12
-59.95910973443344
 22
149.3736769831418
 32
0.0
 13
-59.95910973443344
 23
149.3736769831418
 33
0.0
  0
SOLID
  5
1DF9
330
1DF2
100
AcDbEntity
  8
0
 62
     0
100
AcDbTrace
 10
-58.52114707354763
 20
149.4036769831418
 30
0.0
 11
-58.52114707354763
 21
149.3436769831418
 31
0.0
 12
-58.70114707354763
 22
149.3736769831418
 32
0.0
 13
-58.70114707354763
 23
149.3736769831418
 33
0.0
  0
MTEXT
  5
1DFA
330
1DF2
100
AcDbEntity
  8
0
 62
     0
100
AcDbMText
 10
-59.33012840399054
 20
149.3736769831418
 30
0.0
 40
0.18
 41
0.0
 71
     5
 72
     1
  1
\A1;1.2580
 73
     1
 44
1.0
1001
ACAD
1000
MTEXTBEGIN
1070
    73
1070
     1
1070
    44
1040
1.0
1070
    74
1070
     0
1000
MTEXTEND
  0
POINT
  5
1DFB
330
1DF2
100
AcDbEntity
  8
Defpoints
 62
     0
100
AcDbPoint
 10
-59.95910973443344
 20
148.5593967655811
 30
0.0
  0
POINT
  5
1DFC
330
1DF2
100
AcDbEntity
  8
Defpoints
 62
     0
100
AcDbPoint
 10
-58.70114707354763
 20
148.5593366661562
 30
0.0
  0
POINT
  5
1DFD
330
1DF2
100
AcDbEntity
  8
Defpoints
 62
     0
100
AcDbPoint
 10
-58.70114707354763
 20
149.3736769831418
 30
0.0
  0
ENDBLK
  5
1DFE
330
1DF2
100
AcDbEntity
  8
0
100
AcDbBlockEnd
  0
BLOCK
  5
3479
330
346E
100
AcDbEntity
  8
0
100
AcDbBlockBegin
  2
*D14
 70
     1
 10
0.0
 20
0.0
 30
0.0
  3
*D14
  1

  0
LINE
  5
346F
330
346E
100
AcDbEntity
  8
Dynamic Closures details
 62
     0
370
    -2
100
AcDbLine
 10
37.44720931581942
 20
160.9759197732063
 30
0.0
 11
45.08690475701597
 21
160.9759197732063
 31
0.0
  0
LINE
  5
3470
330
346E
100
AcDbEntity
  8
Dynamic Closures details
 62
     0
370
    -2
100
AcDbLine
 10
37.44720931581942
 20
154.9759197732063
 30
0.0
 11
45.08690475701597
 21
154.9759197732063
 31
0.0
  0
LINE
  5
3471
330
346E
100
AcDbEntity
  8
Dynamic Closures details
 62
     0
370
    -2
100
AcDbLine
 10
44.90690475701597
 20
160.7959197732063
 30
0.0
 11
44.90690475701597
 21
158.1559197732063
 31
0.0
  0
LINE
  5
3472
330
346E
100
AcDbEntity
  8
Dynamic Closures details
 62
     0
370
    -2
100
AcDbLine
 10
44.90690475701597
 20
155.1559197732063
 30
0.0
 11
44.90690475701597
 21
157.7959197732063
 31
0.0
  0
SOLID
  5
3473
330
346E
100
AcDbEntity
  8
Dynamic Closures details
 62
     0
100
AcDbTrace
 10
44.93690475701597
 20
160.7959197732063
 30
0.0
 11
44.87690475701596
 21
160.7959197732063
 31
0.0
 12
44.90690475701597
 22
160.9759197732063
 32
0.0
 13
44.90690475701597
 23
160.9759197732063
 33
0.0
  0
SOLID
  5
3474
330
346E
100
AcDbEntity
  8
Dynamic Closures details
 62
     0
100
AcDbTrace
 10
44.87690475701596
 20
155.1559197732063
 30
0.0
 11
44.93690475701597
 21
155.1559197732063
 31
0.0
 12
44.90690475701597
 22
154.9759197732063
 32
0.0
 13
44.90690475701597
 23
154.9759197732063
 33
0.0
  0
MTEXT
  5
3475
330
346E
100
AcDbEntity
  8
Dynamic Closures details
 62
     0
100
AcDbMText
 10
44.90690475701597
 20
157.9759197732063
 30
0.0
 40
0.18
 41
0.0
 71
     5
 72
     1
  1
\A1;6.0000
 73
     1
 44
1.0
1001
ACAD
1000
MTEXTBEGIN
1070
    73
1070
     1
1070
    44
1040
1.0
1070
    74
1070
     0
1000
MTEXTEND
  0
POINT
  5
3476
330
346E
100
AcDbEntity
  8
Defpoints
 62
     0
100
AcDbPoint
 10
37.38470931581942
 20
160.9759197732063
 30
0.0
  0
POINT
  5
3477
330
346E
100
AcDbEntity
  8
Defpoints
 62
     0
100
AcDbPoint
 10
37.38470931581942
 20
154.9759197732063
 30
0.0
  0
POINT
  5
3478
330
346E
100
AcDbEntity
  8
Defpoints
 62
     0
100
AcDbPoint
 10
44.90690475701597
 20
154.9759197732063
 30
0.0
  0
ENDBLK
  5
347A
330
346E
100
AcDbEntity
  8
0
100
AcDbBlockEnd
  0
BLOCK
  5
3492
330
3487
100
AcDbEntity
  8
0
100
AcDbBlockBegin
  2
*D15
 70
     1
 10
0.0
 20
0.0
 30
0.0
  3
*D15
  1

  0
LINE
  5
3488
330
3487
100
AcDbEntity
  8
Dynamic Closures details
 62
     0
370
    -2
100
AcDbLine
 10
37.44720931581942
 20
134.0679257045985
 30
0.0
 11
41.33890515477984
 21
134.0679257045985
 31
0.0
  0
LINE
  5
3489
330
3487
100
AcDbEntity
  8
Dynamic Closures details
 62
     0
370
    -2
100
AcDbLine
 10
37.44720931581942
 20
129.0679257045985
 30
0.0
 11
41.33890515477984
 21
129.0679257045985
 31
0.0
  0
LINE
  5
348A
330
3487
100
AcDbEntity
  8
Dynamic Closures details
 62
     0
370
    -2
100
AcDbLine
 10
41.15890515477985
 20
133.8879257045985
 30
0.0
 11
41.15890515477985
 21
131.7479257045985
 31
0.0
  0
LINE
  5
348B
330
3487
100
AcDbEntity
  8
Dynamic Closures details
 62
     0
370
    -2
100
AcDbLine
 10
41.15890515477985
 20
129.2479257045985
 30
0.0
 11
41.15890515477985
 21
131.3879257045985
 31
0.0
  0
SOLID
  5
348C
330
3487
100
AcDbEntity
  8
Dynamic Closures details
 62
     0
100
AcDbTrace
 10
41.18890515477985
 20
133.8879257045985
 30
0.0
 11
41.12890515477984
 21
133.8879257045985
 31
0.0
 12
41.15890515477985
 22
134.0679257045985
 32
0.0
 13
41.15890515477985
 23
134.0679257045985
 33
0.0
  0
SOLID
  5
348D
330
3487
100
AcDbEntity
  8
Dynamic Closures details
 62
     0
100
AcDbTrace
 10
41.12890515477984
 20
129.2479257045985
 30
0.0
 11
41.18890515477985
 21
129.2479257045985
 31
0.0
 12
41.15890515477985
 22
129.0679257045985
 32
0.0
 13
41.15890515477985
 23
129.0679257045985
 33
0.0
  0
MTEXT
  5
348E
330
3487
100
AcDbEntity
  8
Dynamic Closures details
 62
     0
100
AcDbMText
 10
41.15890515477985
 20
131.5679257045985
 30
0.0
 40
0.18
 41
0.0
 71
     5
 72
     1
  1
\A1;5.0000
 73
     1
 44
1.0
1001
ACAD
1000
MTEXTBEGIN
1070
    73
1070
     1
1070
    44
1040
1.0
1070
    74
1070
     0
1000
MTEXTEND
  0
POINT
  5
348F
330
3487
100
AcDbEntity
  8
Defpoints
 62
     0
100
AcDbPoint
 10
37.38470931581942
 20
134.0679257045985
 30
0.0
  0
POINT
  5
3490
330
3487
100
AcDbEntity
  8
Defpoints
 62
     0
100
AcDbPoint
 10
37.38470931581942
 20
129.0679257045985
 30
0.0
  0
POINT
  5
3491
330
3487
100
AcDbEntity
  8
Defpoints
 62
     0
100
AcDbPoint
 10
41.15890515477985
 20
129.0679257045985
 30
0.0
  0
ENDBLK
  5
3493
330
3487
100
AcDbEntity
  8
0
100
AcDbBlockEnd
  0
BLOCK
  5
351E
330
351D
100
AcDbEntity
  8
0
100
AcDbBlockBegin
  2
*D16
 70
     1
 10
0.0
 20
0.0
 30
0.0
  3
*D16
  1

  0
LINE
  5
351F
330
351D
100
AcDbEntity
  8
FORMAT
 62
     0
370
    -2
100
AcDbLine
 10
44.72924734966857
 20
157.9986210512902
 30
0.0
 11
44.21347403720802
 21
157.7873307087215
 31
0.0
  0
MTEXT
  5
3520
330
351D
100
AcDbEntity
  8
FORMAT
 62
     0
100
AcDbMText
 10
44.18821242117981
 20
157.9176926250463
 30
0.0
 40
0.1041666666666667
 41
0.0
 71
     1
 72
     1
  1
\A1;R.305
  7
SLDTEXTSTYLE0
 11
0.9253631491874065
 21
0.3790818409340728
 31
0.0
 73
     1
 44
1.0
1001
ACAD
1000
MTEXTBEGIN
1070
    73
1070
     1
1070
    44
1040
1.0
1070
    74
1070
     0
1000
MTEXTEND
  0
SOLID
  5
3521
330
351D
100
AcDbEntity
  8
FORMAT
 62
     0
100
AcDbTrace
 10
44.73746078955547
 20
157.9785715163911
 30
0.0
 11
44.72103390978167
 21
158.0186705861892
 31
0.0
 12
44.84954455906295
 22
158.0479016906116
 32
0.0
 13
44.84954455906295
 23
158.0479016906116
 33
0.0
  0
POINT
  5
3522
330
351D
100
AcDbEntity
  8
Defpoints
 62
     0
100
AcDbPoint
 10
44.84954455906295
 20
158.0479016906116
 30
0.0
  0
POINT
  5
3523
330
351D
100
AcDbEntity
  8
Defpoints
 62
     0
100
AcDbPoint
 10
45.13178031956512
 20
158.1635216520965
 30
0.0
  0
ENDBLK
  5
3524
330
351D
100
AcDbEntity
  8
0
100
AcDbBlockEnd
  0
BLOCK
  5
3527
330
3526
100
AcDbEntity
  8
0
100
AcDbBlockBegin
  2
*D17
 70
     1
 10
0.0
 20
0.0
 30
0.0
  3
*D17
  1

  0
LINE
  5
3528
330
3526
100
AcDbEntity
  8
FORMAT
 62
     0
370
    -2
100
AcDbLine
 10
40.06864137916994
 20
158.1900489401403
 30
0.0
 11
40.16518787790961
 21
158.0935024414007
 31
0.0
  0
LINE
  5
3529
330
3526
100
AcDbEntity
  8
FORMAT
 62
     0
370
    -2
100
AcDbLine
 10
39.9555042941801
 20
158.0769118551505
 30
0.0
 11
40.05205079291977
 21
157.9803653564108
 31
0.0
  0
LINE
  5
352A
330
3526
100
AcDbEntity
  8
FORMAT
 62
     0
370
    -2
100
AcDbLine
 10
40.16518787790961
 20
158.0935024414007
 30
0.0
 11
40.88142838140032
 21
158.8097429448914
 31
0.0
  0
LINE
  5
352B
330
3526
100
AcDbEntity
  8
FORMAT
 62
     0
370
    -2
100
AcDbLine
 10
40.16518787790961
 20
158.0935024414007
 30
0.0
 11
40.05205079291977
 21
157.9803653564108
 31
0.0
  0
LINE
  5
352C
330
3526
100
AcDbEntity
  8
FORMAT
 62
     0
370
    -2
100
AcDbLine
 10
40.16518787790961
 20
158.0935024414007
 30
0.0
 11
40.34903564101812
 21
158.2773502045092
 31
0.0
  0
LINE
  5
352D
330
3526
100
AcDbEntity
  8
FORMAT
 62
     0
370
    -2
100
AcDbLine
 10
40.05205079291977
 20
157.9803653564108
 30
0.0
 11
39.86820302981128
 21
157.7965175933023
 31
0.0
  0
SOLID
  5
352E
330
3526
100
AcDbEntity
  8
FORMAT
 62
     0
100
AcDbTrace
 10
40.24179111253817
 20
158.2007469698807
 30
0.0
 11
40.27243240638957
 21
158.1701056760292
 31
0.0
 12
40.16518787790961
 22
158.0935024414007
 32
0.0
 13
40.16518787790961
 23
158.0935024414007
 33
0.0
  0
SOLID
  5
352F
330
3526
100
AcDbEntity
  8
FORMAT
 62
     0
100
AcDbTrace
 10
39.97544755829122
 20
157.8731208279308
 30
0.0
 11
39.94480626443981
 21
157.9037621217823
 31
0.0
 12
40.05205079291977
 22
157.9803653564108
 32
0.0
 13
40.05205079291977
 23
157.9803653564108
 33
0.0
  0
MTEXT
  5
3530
330
3526
100
AcDbEntity
  8
FORMAT
 62
     0
100
AcDbMText
 10
40.70188955023968
 20
158.8143465046648
 30
0.0
 40
0.1041666666666667
 41
0.0
 71
     2
 72
     1
  1
\A1;.160
  7
SLDTEXTSTYLE0
 11
0.7071067811865254
 21
0.7071067811865698
 31
0.0
 73
     1
 44
1.0
1001
ACAD
1000
MTEXTBEGIN
1070
    73
1070
     1
1070
    44
1040
1.0
1070
    74
1070
     0
1000
MTEXTEND
  0
POINT
  5
3531
330
3526
100
AcDbEntity
  8
Defpoints
 62
     0
100
AcDbPoint
 10
40.02444720534577
 20
158.2342431139645
 30
0.0
  0
POINT
  5
3532
330
3526
100
AcDbEntity
  8
Defpoints
 62
     0
100
AcDbPoint
 10
39.91131012035593
 20
158.1211060289747
 30
0.0
  0
POINT
  5
3533
330
3526
100
AcDbEntity
  8
Defpoints
 62
     0
100
AcDbPoint
 10
40.05205079291975
 20
157.9803653564108
 30
0.0
  0
ENDBLK
  5
3534
330
3526
100
AcDbEntity
  8
0
100
AcDbBlockEnd
  0
BLOCK
  5
3537
330
3536
100
AcDbEntity
  8
0
100
AcDbBlockBegin
  2
*D18
 70
     1
 10
0.0
 20
0.0
 30
0.0
  3
*D18
  1

  0
LINE
  5
3538
330
3536
100
AcDbEntity
  8
FORMAT
 62
     0
370
    -2
100
AcDbLine
 10
40.07068788169362
 20
158.0784008865327
 30
0.0
 11
40.96375266376162
 21
157.8391048993886
 31
0.0
  0
MTEXT
  5
3539
330
3536
100
AcDbEntity
  8
FORMAT
 62
     0
100
AcDbMText
 10
40.7279579423446
 20
158.2168229385507
 30
0.0
 40
0.1041666666666667
 41
0.0
 71
     1
 72
     1
  1
\A1;2x \PR.035
  7
SLDTEXTSTYLE0
 11
0.965925826289005
 21
-0.2588190451027567
 31
0.0
 73
     1
 44
1.0
1001
ACAD
1000
MTEXTBEGIN
1070
    73
1070
     1
1070
    44
1040
1.0
1070
    74
1070
     0
1000
MTEXTEND
  0
SOLID
  5
353A
330
3536
100
AcDbEntity
  8
FORMAT
 62
     0
100
AcDbTrace
 10
40.07629562767085
 20
158.0993292794356
 30
0.0
 11
40.06508013571639
 21
158.0574724936298
 31
0.0
 12
39.94511752427604
 22
158.112047362396
 32
0.0
 13
39.94511752427604
 23
158.112047362396
 33
0.0
  0
POINT
  5
353B
330
3536
100
AcDbEntity
  8
Defpoints
 62
     0
100
AcDbPoint
 10
39.94511752427604
 20
158.112047362396
 30
0.0
  0
POINT
  5
353C
330
3536
100
AcDbEntity
  8
Defpoints
 62
     0
100
AcDbPoint
 10
39.91131012035593
 20
158.1211060289747
 30
0.0
  0
ENDBLK
  5
353D
330
3536
100
AcDbEntity
  8
0
100
AcDbBlockEnd
  0
BLOCK
  5
3599
330
358E
100
AcDbEntity
  8
0
100
AcDbBlockBegin
  2
*D19
 70
     1
 10
0.0
 20
0.0
 30
0.0
  3
*D19
  1

  0
LINE
  5
358F
330
358E
100
AcDbEntity
  8
Dynamic Closures details
 62
     0
370
    -2
100
AcDbLine
 10
37.44720931581942
 20
160.4759197732063
 30
0.0
 11
42.42551070952464
 21
160.4759197732063
 31
0.0
  0
LINE
  5
3590
330
358E
100
AcDbEntity
  8
Dynamic Closures details
 62
     0
370
    -2
100
AcDbLine
 10
37.44720931581942
 20
155.4759197732063
 30
0.0
 11
42.42551070952464
 21
155.4759197732063
 31
0.0
  0
LINE
  5
3591
330
358E
100
AcDbEntity
  8
Dynamic Closures details
 62
     0
370
    -2
100
AcDbLine
 10
42.24551070952464
 20
160.2959197732063
 30
0.0
 11
42.24551070952464
 21
158.1559197732063
 31
0.0
  0
LINE
  5
3592
330
358E
100
AcDbEntity
  8
Dynamic Closures details
 62
     0
370
    -2
100
AcDbLine
 10
42.24551070952464
 20
155.6559197732063
 30
0.0
 11
42.24551070952464
 21
157.7959197732063
 31
0.0
  0
SOLID
  5
3593
330
358E
100
AcDbEntity
  8
Dynamic Closures details
 62
     0
100
AcDbTrace
 10
42.27551070952464
 20
160.2959197732063
 30
0.0
 11
42.21551070952464
 21
160.2959197732063
 31
0.0
 12
42.24551070952464
 22
160.4759197732063
 32
0.0
 13
42.24551070952464
 23
160.4759197732063
 33
0.0
  0
SOLID
  5
3594
330
358E
100
AcDbEntity
  8
Dynamic Closures details
 62
     0
100
AcDbTrace
 10
42.21551070952464
 20
155.6559197732063
 30
0.0
 11
42.27551070952464
 21
155.6559197732063
 31
0.0
 12
42.24551070952464
 22
155.4759197732063
 32
0.0
 13
42.24551070952464
 23
155.4759197732063
 33
0.0
  0
MTEXT
  5
3595
330
358E
100
AcDbEntity
  8
Dynamic Closures details
 62
     0
100
AcDbMText
 10
42.24551070952464
 20
157.9759197732063
 30
0.0
 40
0.18
 41
0.0
 71
     5
 72
     1
  1
\A1;5.0000
 73
     1
 44
1.0
1001
ACAD
1000
MTEXTBEGIN
1070
    73
1070
     1
1070
    44
1040
1.0
1070
    74
1070
     0
1000
MTEXTEND
  0
POINT
  5
3596
330
358E
100
AcDbEntity
  8
Defpoints
 62
     0
100
AcDbPoint
 10
37.38470931581942
 20
160.4759197732063
 30
0.0
  0
POINT
  5
3597
330
358E
100
AcDbEntity
  8
Defpoints
 62
     0
100
AcDbPoint
 10
37.38470931581942
 20
155.4759197732063
 30
0.0
  0
POINT
  5
3598
330
358E
100
AcDbEntity
  8
Defpoints
 62
     0
100
AcDbPoint
 10
42.24551070952464
 20
155.4759197732063
 30
0.0
  0
ENDBLK
  5
359A
330
358E
100
AcDbEntity
  8
0
100
AcDbBlockEnd
  0
BLOCK
  5
35A7
330
359C
100
AcDbEntity
  8
0
100
AcDbBlockBegin
  2
*D20
 70
     1
 10
0.0
 20
0.0
 30
0.0
  3
*D20
  1

  0
LINE
  5
36D4
330
359C
100
AcDbEntity
  8
Text
 62
     0
370
    -2
100
AcDbLine
 10
16.18742469527008
 20
160.9759197732063
 30
0.0
 11
27.51591344695239
 21
160.9759197732063
 31
0.0
  0
LINE
  5
36D5
330
359C
100
AcDbEntity
  8
Text
 62
     0
370
    -2
100
AcDbLine
 10
16.18742469527008
 20
154.9759197732063
 30
0.0
 11
27.51591344695239
 21
154.9759197732063
 31
0.0
  0
LINE
  5
36D6
330
359C
100
AcDbEntity
  8
Text
 62
     0
370
    -2
100
AcDbLine
 10
26.61591344695239
 20
160.0759197732063
 30
0.0
 11
26.61591344695239
 21
158.8759197732063
 31
0.0
  0
LINE
  5
36D7
330
359C
100
AcDbEntity
  8
Text
 62
     0
370
    -2
100
AcDbLine
 10
26.61591344695239
 20
155.8759197732063
 30
0.0
 11
26.61591344695239
 21
157.0759197732063
 31
0.0
  0
SOLID
  5
36D8
330
359C
100
AcDbEntity
  8
Text
 62
     0
100
AcDbTrace
 10
26.46591344695239
 20
160.0759197732063
 30
0.0
 11
26.76591344695239
 21
160.0759197732063
 31
0.0
 12
26.61591344695239
 22
160.9759197732063
 32
0.0
 13
26.61591344695239
 23
160.9759197732063
 33
0.0
  0
SOLID
  5
36D9
330
359C
100
AcDbEntity
  8
Text
 62
     0
100
AcDbTrace
 10
26.46591344695239
 20
155.8759197732063
 30
0.0
 11
26.76591344695239
 21
155.8759197732063
 31
0.0
 12
26.61591344695239
 22
154.9759197732063
 32
0.0
 13
26.61591344695239
 23
154.9759197732063
 33
0.0
  0
MTEXT
  5
36DA
330
359C
100
AcDbEntity
  8
Text
 62
     0
100
AcDbMText
 10
26.61591344695237
 20
157.9759197732063
 30
0.0
 40
0.9
 41
0.0
 71
     5
 72
     1
  1
\A1;6" [152] Pocket Width
 73
     1
 44
1.0
1001
ACAD
1000
MTEXTBEGIN
1070
    73
1070
     1
1070
    44
1040
1.0
1070
    74
1070
     0
1000
MTEXTEND
  0
POINT
  5
36DB
330
359C
100
AcDbEntity
  8
Defpoints
 62
     0
100
AcDbPoint
 10
15.87492469527008
 20
160.9759197732063
 30
0.0
  0
POINT
  5
36DC
330
359C
100
AcDbEntity
  8
Defpoints
 62
     0
100
AcDbPoint
 10
15.87492469527008
 20
154.9759197732063
 30
0.0
  0
POINT
  5
36DD
330
359C
100
AcDbEntity
  8
Defpoints
 62
     0
100
AcDbPoint
 10
26.61591344695239
 20
154.9759197732063
 30
0.0
  0
ENDBLK
  5
35A8
330
359C
100
AcDbEntity
  8
0
100
AcDbBlockEnd
  0
BLOCK
  5
35B5
330
35AA
100
AcDbEntity
  8
0
100
AcDbBlockBegin
  2
*D21
 70
     1
 10
0.0
 20
0.0
 30
0.0
  3
*D21
  1

  0
LINE
  5
36C0
330
35AA
100
AcDbEntity
  8
Text
 62
     0
370
    -2
100
AcDbLine
 10
16.18742469527006
 20
134.0679257045985
 30
0.0
 11
31.25351019922666
 21
134.0679257045985
 31
0.0
  0
LINE
  5
36C1
330
35AA
100
AcDbEntity
  8
Text
 62
     0
370
    -2
100
AcDbLine
 10
16.18742469527007
 20
129.0679257045985
 30
0.0
 11
31.25351019922666
 21
129.0679257045985
 31
0.0
  0
LINE
  5
36C2
330
35AA
100
AcDbEntity
  8
Text
 62
     0
370
    -2
100
AcDbLine
 10
30.35351019922666
 20
133.1679257045985
 30
0.0
 11
30.35351019922666
 21
132.4679257045985
 31
0.0
  0
LINE
  5
36C3
330
35AA
100
AcDbEntity
  8
Text
 62
     0
370
    -2
100
AcDbLine
 10
30.35351019922666
 20
129.9679257045985
 30
0.0
 11
30.35351019922666
 21
130.6679257045985
 31
0.0
  0
SOLID
  5
36C4
330
35AA
100
AcDbEntity
  8
Text
 62
     0
100
AcDbTrace
 10
30.20351019922666
 20
133.1679257045985
 30
0.0
 11
30.50351019922666
 21
133.1679257045985
 31
0.0
 12
30.35351019922666
 22
134.0679257045985
 32
0.0
 13
30.35351019922666
 23
134.0679257045985
 33
0.0
  0
SOLID
  5
36C5
330
35AA
100
AcDbEntity
  8
Text
 62
     0
100
AcDbTrace
 10
30.20351019922666
 20
129.9679257045985
 30
0.0
 11
30.50351019922666
 21
129.9679257045985
 31
0.0
 12
30.35351019922666
 22
129.0679257045985
 32
0.0
 13
30.35351019922666
 23
129.0679257045985
 33
0.0
  0
MTEXT
  5
36C6
330
35AA
100
AcDbEntity
  8
Text
 62
     0
100
AcDbMText
 10
30.35351019922664
 20
131.5679257045985
 30
0.0
 40
0.9
 41
0.0
 71
     5
 72
     1
  1
\A1;5" [127] Minimum Pocket Width
 73
     1
 44
1.0
1001
ACAD
1000
MTEXTBEGIN
1070
    73
1070
     1
1070
    44
1040
1.0
1070
    74
1070
     0
1000
MTEXTEND
  0
POINT
  5
36C7
330
35AA
100
AcDbEntity
  8
Defpoints
 62
     0
100
AcDbPoint
 10
15.87492469527007
 20
134.0679257045985
 30
0.0
  0
POINT
  5
36C8
330
35AA
100
AcDbEntity
  8
Defpoints
 62
     0
100
AcDbPoint
 10
15.87492469527007
 20
129.0679257045985
 30
0.0
  0
POINT
  5
36C9
330
35AA
100
AcDbEntity
  8
Defpoints
 62
     0
100
AcDbPoint
 10
30.35351019922666
 20
129.0679257045985
 30
0.0
  0
ENDBLK
  5
35B6
330
35AA
100
AcDbEntity
  8
0
100
AcDbBlockEnd
  0
BLOCK
  5
35C5
330
35BA
100
AcDbEntity
  8
0
100
AcDbBlockBegin
  2
*D22
 70
     1
 10
0.0
 20
0.0
 30
0.0
  3
*D22
  1

  0
LINE
  5
36AC
330
35BA
100
AcDbEntity
  8
Text
 62
     0
370
    -2
100
AcDbLine
 10
16.18742469527007
 20
111.8411190669193
 30
0.0
 11
31.31037212569802
 21
111.8411190669193
 31
0.0
  0
LINE
  5
36AD
330
35BA
100
AcDbEntity
  8
Text
 62
     0
370
    -2
100
AcDbLine
 10
16.18742469527006
 20
103.8411190669193
 30
0.0
 11
31.31037212569802
 21
103.8411190669193
 31
0.0
  0
LINE
  5
36AE
330
35BA
100
AcDbEntity
  8
Text
 62
     0
370
    -2
100
AcDbLine
 10
30.41037212569802
 20
110.9411190669193
 30
0.0
 11
30.41037212569802
 21
108.7411190669193
 31
0.0
  0
LINE
  5
36AF
330
35BA
100
AcDbEntity
  8
Text
 62
     0
370
    -2
100
AcDbLine
 10
30.41037212569802
 20
104.7411190669193
 30
0.0
 11
30.41037212569802
 21
106.9411190669192
 31
0.0
  0
SOLID
  5
36B0
330
35BA
100
AcDbEntity
  8
Text
 62
     0
100
AcDbTrace
 10
30.26037212569802
 20
110.9411190669193
 30
0.0
 11
30.56037212569802
 21
110.9411190669193
 31
0.0
 12
30.41037212569802
 22
111.8411190669193
 32
0.0
 13
30.41037212569802
 23
111.8411190669193
 33
0.0
  0
SOLID
  5
36B1
330
35BA
100
AcDbEntity
  8
Text
 62
     0
100
AcDbTrace
 10
30.26037212569802
 20
104.7411190669193
 30
0.0
 11
30.56037212569802
 21
104.7411190669193
 31
0.0
 12
30.41037212569801
 22
103.8411190669193
 32
0.0
 13
30.41037212569801
 23
103.8411190669193
 33
0.0
  0
MTEXT
  5
36B2
330
35BA
100
AcDbEntity
  8
Text
 62
     0
100
AcDbMText
 10
30.410372125698
 20
107.8411190669193
 30
0.0
 40
0.9
 41
0.0
 71
     5
 72
     1
  1
\A1;8" [203] Minimum Pocket Width
 73
     1
 44
1.0
1001
ACAD
1000
MTEXTBEGIN
1070
    73
1070
     1
1070
    44
1040
1.0
1070
    74
1070
     0
1000
MTEXTEND
  0
POINT
  5
36B3
330
35BA
100
AcDbEntity
  8
Defpoints
 62
     0
100
AcDbPoint
 10
15.87492469527007
 20
111.8411190669193
 30
0.0
  0
POINT
  5
36B4
330
35BA
100
AcDbEntity
  8
Defpoints
 62
     0
100
AcDbPoint
 10
15.87492469527007
 20
103.8411190669193
 30
0.0
  0
POINT
  5
36B5
330
35BA
100
AcDbEntity
  8
Defpoints
 62
     0
100
AcDbPoint
 10
30.41037212569801
 20
103.8411190669193
 30
0.0
  0
ENDBLK
  5
35C6
330
35BA
100
AcDbEntity
  8
0
100
AcDbBlockEnd
  0
BLOCK
  5
35D3
330
35C8
100
AcDbEntity
  8
0
100
AcDbBlockBegin
  2
*D23
 70
     1
 10
0.0
 20
0.0
 30
0.0
  3
*D23
  1

  0
LINE
  5
3698
330
35C8
100
AcDbEntity
  8
Text
 62
     0
370
    -2
100
AcDbLine
 10
16.18742469527009
 20
87.81991265795261
 30
0.0
 11
33.05999559230705
 21
87.81991265795259
 31
0.0
  0
LINE
  5
3699
330
35C8
100
AcDbEntity
  8
Text
 62
     0
370
    -2
100
AcDbLine
 10
16.18742469527007
 20
74.8199126579526
 30
0.0
 11
33.05999559230704
 21
74.81991265795258
 31
0.0
  0
LINE
  5
369A
330
35C8
100
AcDbEntity
  8
Text
 62
     0
370
    -2
100
AcDbLine
 10
32.15999559230705
 20
86.91991265795257
 30
0.0
 11
32.15999559230705
 21
82.21991265795258
 31
0.0
  0
LINE
  5
369B
330
35C8
100
AcDbEntity
  8
Text
 62
     0
370
    -2
100
AcDbLine
 10
32.15999559230704
 20
75.71991265795259
 30
0.0
 11
32.15999559230705
 21
80.41991265795259
 31
0.0
  0
SOLID
  5
369C
330
35C8
100
AcDbEntity
  8
Text
 62
     0
100
AcDbTrace
 10
32.00999559230705
 20
86.91991265795257
 30
0.0
 11
32.30999559230705
 21
86.91991265795257
 31
0.0
 12
32.15999559230705
 22
87.81991265795259
 32
0.0
 13
32.15999559230705
 23
87.81991265795259
 33
0.0
  0
SOLID
  5
369D
330
35C8
100
AcDbEntity
  8
Text
 62
     0
100
AcDbTrace
 10
32.00999559230704
 20
75.71991265795259
 30
0.0
 11
32.30999559230704
 21
75.71991265795259
 31
0.0
 12
32.15999559230704
 22
74.81991265795258
 32
0.0
 13
32.15999559230704
 23
74.81991265795258
 33
0.0
  0
MTEXT
  5
369E
330
35C8
100
AcDbEntity
  8
Text
 62
     0
100
AcDbMText
 10
32.15999559230704
 20
81.3199126579526
 30
0.0
 40
0.9
 41
0.0
 71
     5
 72
     1
  1
\A1;13" [330] Minimum Pocket Width
 73
     1
 44
1.0
1001
ACAD
1000
MTEXTBEGIN
1070
    73
1070
     1
1070
    44
1040
1.0
1070
    74
1070
     0
1000
MTEXTEND
  0
POINT
  5
369F
330
35C8
100
AcDbEntity
  8
Defpoints
 62
     0
100
AcDbPoint
 10
15.87492469527009
 20
87.81991265795261
 30
0.0
  0
POINT
  5
36A0
330
35C8
100
AcDbEntity
  8
Defpoints
 62
     0
100
AcDbPoint
 10
15.87492469527007
 20
74.8199126579526
 30
0.0
  0
POINT
  5
36A1
330
35C8
100
AcDbEntity
  8
Defpoints
 62
     0
100
AcDbPoint
 10
32.15999559230704
 20
74.81991265795258
 30
0.0
  0
ENDBLK
  5
35D4
330
35C8
100
AcDbEntity
  8
0
100
AcDbBlockEnd
  0
ENDSEC
  0
SECTION
  2
ENTITIES
  0
TEXT
  5
680
330
1F
100
AcDbEntity
  8
Text
100
AcDbText
 10
-47.02739728570175
 20
59.40682547228463
 30
0.0
 40
2.063577990271884
  1
***Pocket length is determined by stack dimension***
100
AcDbText
  0
TEXT
  5
697
330
1F
100
AcDbEntity
  8
Text
100
AcDbText
 10
-23.40559474658809
 20
148.9247678593537
 30
0.0
 40
1.0
  1
Available in 11" [279] to 72" [1829] Long
100
AcDbText
  0
TEXT
  5
3494
330
1F
100
AcDbEntity
  8
Text
100
AcDbText
 10
-51.88544447961806
 20
156.7299946587438
 30
0.0
 40
2.0636
  1
EZ Closure 4" [102]
100
AcDbText
  0
TEXT
  5
3495
330
1F
100
AcDbEntity
  8
Text
100
AcDbText
 10
-51.88544447961806
 20
130.3219946587438
 30
0.0
 40
2.0636
  1
Slim Line 4" [102]
100
AcDbText
  0
TEXT
  5
3496
330
1F
100
AcDbEntity
  8
Text
100
AcDbText
 10
-51.88544447961806
 20
106.5951946587438
 30
0.0
 40
2.0636
  1
Standard 7" [178]
100
AcDbText
  0
TEXT
  5
3497
330
1F
100
AcDbEntity
  8
Text
100
AcDbText
 10
-51.88544447961806
 20
80.07399465874382
 30
0.0
 40
2.0636
  1
Wide Body 11" [279]
100
AcDbText
  0
LEADER
  5
3498
330
1F
100
AcDbEntity
  8
Text
100
AcDbLeader
  3
Standard
 73
     0
 40
1.333333333333333
 41
34.99999999999999
 76
     3
 10
11.47864922315893
 20
154.9759197732063
 30
0.0
 10
16.69661206812746
 20
150.7721619048054
 30
0.0
 10
18.38371881735139
 20
150.7721619048054
 30
0.0
340
3499
213
0.0
223
0.09
233
0.0
1001
ACAD
1000
DSTYLE
1002
{
1070
    40
1040
5.0
1070
    77
1070
     0
1002
}
  0
MTEXT
  5
3499
102
{ACAD_REACTORS
330
3498
102
}
330
1F
100
AcDbEntity
  8
Text
100
AcDbMText
 10
18.83371881735139
 20
150.6821619048054
 30
0.0
 40
1.0
 41
0.0
 71
     7
 72
     1
  1
{Tubular Steel Frame Pocket By Dynamic\P}
 73
     1
 44
1.0
1001
ACAD
1000
MTEXTBEGIN
1070
    73
1070
     1
1070
    44
1040
1.0
1070
    74
1070
     0
1000
MTEXTEND
  0
LEADER
  5
358A
330
1F
100
AcDbEntity
  8
Text
100
AcDbLeader
  3
Standard
 73
     0
 75
     1
 40
1.333333333333333
 41
21.0
 76
     4
 10
14.44134417203377
 20
159.2609197225212
 30
0.0
 10
12.30880357391808
 20
162.2537228870765
 30
0.0
 10
11.13555495857835
 20
163.8352977549119
 30
0.0
 10
10.23555495857835
 20
163.8352977549119
 30
0.0
340
358B
213
0.0
223
0.09
233
0.0
1001
ACAD
1000
DSTYLE
1002
{
1070
    40
1040
5.0
1002
}
  0
MTEXT
  5
358B
102
{ACAD_REACTORS
330
358A
102
}
330
1F
100
AcDbEntity
  8
Text
100
AcDbMText
 10
9.785554958578352
 20
163.7452977549119
 30
0.0
 40
1.0
 41
71.28039151490629
 71
     6
 72
     1
  1
Pocket Door by Dynamic
 73
     1
 44
1.0
1001
ACAD
1000
MTEXTBEGIN
1070
    73
1070
     1
1070
    44
1040
1.0
1070
    74
1070
     0
1000
MTEXTEND
  0
DIMENSION
  5
359B
330
1F
100
AcDbEntity
  8
Text
100
AcDbDimension
  2
*D20
 10
26.61591344695239
 20
154.9759197732063
 30
0.0
 11
26.61591344695237
 21
157.9759197732063
 31
0.0
 70
    32
  1
6" [152] Pocket Width
 71
     5
 42
6.0
  3
Standard
100
AcDbAlignedDimension
 13
15.87492469527008
 23
160.9759197732063
 33
0.0
 14
15.87492469527008
 24
154.9759197732063
 34
0.0
 50
90.0
100
AcDbRotatedDimension
1001
ACAD
1000
DSTYLE
1002
{
1070
    40
1040
5.0
1002
}
  0
DIMENSION
  5
35A9
330
1F
100
AcDbEntity
  8
Text
100
AcDbDimension
  2
*D21
 10
30.35351019922666
 20
129.0679257045985
 30
0.0
 11
30.35351019922664
 21
131.5679257045985
 31
0.0
 70
    32
  1
5" [127] Minimum Pocket Width
 71
     5
 42
5.0
  3
Standard
100
AcDbAlignedDimension
 13
15.87492469527007
 23
134.0679257045985
 33
0.0
 14
15.87492469527007
 24
129.0679257045985
 34
0.0
 50
90.0
100
AcDbRotatedDimension
1001
ACAD
1000
DSTYLE
1002
{
1070
    40
1040
5.0
1002
}
  0
DIMENSION
  5
35B9
330
1F
100
AcDbEntity
  8
Text
100
AcDbDimension
  2
*D22
 10
30.41037212569801
 20
103.8411190669193
 30
0.0
 11
30.410372125698
 21
107.8411190669193
 31
0.0
 70
    32
  1
8" [203] Minimum Pocket Width
 71
     5
 42
8.0
  3
Standard
100
AcDbAlignedDimension
 13
15.87492469527007
 23
111.8411190669193
 33
0.0
 14
15.87492469527007
 24
103.8411190669193
 34
0.0
 50
90.0
100
AcDbRotatedDimension
1001
ACAD
1000
DSTYLE
1002
{
1070
    40
1040
5.0
1002
}
  0
DIMENSION
  5
35C7
330
1F
100
AcDbEntity
  8
Text
100
AcDbDimension
  2
*D23
 10
32.15999559230704
 20
74.81991265795258
 30
0.0
 11
32.15999559230704
 21
81.3199126579526
 31
0.0
 70
    32
  1
13" [330] Minimum Pocket Width
 71
     5
 42
13.0
  3
Standard
100
AcDbAlignedDimension
 13
15.87492469527009
 23
87.81991265795261
 33
0.0
 14
15.87492469527007
 24
74.8199126579526
 34
0.0
 50
90.0
100
AcDbRotatedDimension
1001
ACAD
1000
DSTYLE
1002
{
1070
    40
1040
5.0
1002
}
  0
MTEXT
  5
35E3
102
{ACAD_REACTORS
330
35E4
102
}
330
1F
100
AcDbEntity
  8
Text
100
AcDbMText
 10
18.83371881735139
 20
122.7741678361976
 30
0.0
 40
1.0
 41
0.0
 71
     7
 72
     1
  1
{Pocket Construction by Contractor\P}
 73
     1
 44
1.0
1001
ACAD
1000
MTEXTBEGIN
1070
    73
1070
     1
1070
    44
1040
1.0
1070
    74
1070
     0
1000
MTEXTEND
  0
LEADER
  5
35E4
330
1F
100
AcDbEntity
  8
Text
100
AcDbLeader
  3
Standard
 73
     0
 40
1.333333333333333
 41
32.0
 76
     3
 10
11.47864922315893
 20
127.0679257045985
 30
0.0
 10
16.69661206812746
 20
122.8641678361976
 30
0.0
 10
18.38371881735139
 20
122.8641678361976
 30
0.0
340
35E3
213
0.0
223
0.09
233
0.0
1001
ACAD
1000
DSTYLE
1002
{
1070
    40
1040
5.0
1070
    77
1070
     0
1002
}
  0
MTEXT
  5
35E5
102
{ACAD_REACTORS
330
35E6
102
}
330
1F
100
AcDbEntity
  8
Text
100
AcDbMText
 10
18.83371881735139
 20
97.54736119851841
 30
0.0
 40
1.0
 41
0.0
 71
     7
 72
     1
  1
{Pocket Construction by Contractor\P}
 73
     1
 44
1.0
1001
ACAD
1000
MTEXTBEGIN
1070
    73
1070
     1
1070
    44
1040
1.0
1070
    74
1070
     0
1000
MTEXTEND
  0
LEADER
  5
35E6
330
1F
100
AcDbEntity
  8
Text
100
AcDbLeader
  3
Standard
 73
     0
 40
1.333333333333333
 41
32.0
 76
     3
 10
11.47864922315893
 20
101.8411190669193
 30
0.0
 10
16.69661206812746
 20
97.63736119851841
 30
0.0
 10
18.38371881735139
 20
97.63736119851841
 30
0.0
340
35E5
213
0.0
223
0.09
233
0.0
1001
ACAD
1000
DSTYLE
1002
{
1070
    40
1040
5.0
1070
    77
1070
     0
1002
}
  0
MTEXT
  5
35E7
102
{ACAD_REACTORS
330
35E8
102
}
330
1F
100
AcDbEntity
  8
Text
100
AcDbMText
 10
18.8337188173514
 20
68.52615478955167
 30
0.0
 40
1.0
 41
0.0
 71
     7
 72
     1
  1
{Pocket Construction by Contractor\P}
 73
     1
 44
1.0
1001
ACAD
1000
MTEXTBEGIN
1070
    73
1070
     1
1070
    44
1040
1.0
1070
    74
1070
     0
1000
MTEXTEND
  0
LEADER
  5
35E8
330
1F
100
AcDbEntity
  8
Text
100
AcDbLeader
  3
Standard
 73
     0
 40
1.333333333333333
 41
32.0
 76
     3
 10
11.47864922315894
 20
72.8199126579526
 30
0.0
 10
16.69661206812746
 20
68.61615478955167
 30
0.0
 10
18.3837188173514
 20
68.61615478955167
 30
0.0
340
35E7
213
0.0
223
0.09
233
0.0
1001
ACAD
1000
DSTYLE
1002
{
1070
    40
1040
5.0
1070
    77
1070
     0
1002
}
  0
TEXT
  5
35E9
330
1F
100
AcDbEntity
  8
Text
100
AcDbText
 10
-50.93860148655214
 20
188.8135305161138
 30
0.0
 40
2.0636
  1
Pocket Clearances Required - Straight Pockets
100
AcDbText
  0
TEXT
  5
35EA
330
1F
100
AcDbEntity
  8
Text
100
AcDbText
 10
-50.93860148655214
 20
184.7412305161137
 30
0.0
 40
2.0636
  1
Plan Views
100
AcDbText
  0
INSERT
  5
363B
330
1F
100
AcDbEntity
  8
Dynamic Closures details
100
AcDbBlockReference
  2
EZ POCKET DETAIL
 10
-10.61529068418059
 20
157.9759197732063
 30
0.0
  0
INSERT
  5
364E
330
1F
100
AcDbEntity
  8
Dynamic Closures details
100
AcDbBlockReference
  2
SL POCKET
 10
-10.61529068418059
 20
131.5679257045985
 30
0.0
  0
INSERT
  5
3661
330
1F
100
AcDbEntity
  8
Dynamic Closures details
100
AcDbBlockReference
  2
STD POCKET
 10
-10.61529068418059
 20
107.8411190669193
 30
0.0
  0
INSERT
  5
3674
330
1F
100
AcDbEntity
  8
Dynamic Closures details
100
AcDbBlockReference
  2
WB POCKET
 10
-10.61529068418058
 20
81.31991265795255
 30
0.0
  0
TEXT
  5
3675
330
1F
100
AcDbEntity
  8
Text
100
AcDbText
 10
3.87320674289645
 20
158.2461054575666
 30
0.0
 40
0.5
  1
C.L. of Track
100
AcDbText
  0
TEXT
  5
3676
330
1F
100
AcDbEntity
  8
Text
100
AcDbText
 10
3.87320674289645
 20
131.8381113889588
 30
0.0
 40
0.5
  1
C.L. of Track
100
AcDbText
  0
TEXT
  5
3678
330
1F
100
AcDbEntity
  8
Text
100
AcDbText
 10
3.87320674289645
 20
108.1113047512796
 30
0.0
 40
0.5
  1
C.L. of Track
100
AcDbText
  0
TEXT
  5
3679
330
1F
100
AcDbEntity
  8
Text
100
AcDbText
 10
3.87320674289645
 20
81.59009834231289
 30
0.0
 40
0.5
  1
C.L. of Track
100
AcDbText
  0
LWPOLYLINE
  5
3680
330
1F
100
AcDbEntity
  8
Text
100
AcDbPolyline
 90
        4
 70
     1
 43
0.0
 10
-54.0133887638924
 20
45.52987324225026
 10
-54.0133887638924
 20
195.0758124339497
 10
61.54483697514809
 20
195.0758124339497
 10
61.54483697514809
 20
45.52987324225026
  0
ENDSEC
  0
SECTION
  2
OBJECTS
  0
DICTIONARY
  5
C
330
0
100
AcDbDictionary
281
     1
  3
ACAD_2007HEADERVARS_RT
350
36E7
  3
ACAD_CIP_PREVIOUS_PRODUCT_INFO
350
37B
  3
ACAD_COLOR
350
362
  3
ACAD_GROUP
350
D
  3
ACAD_IMAGE_VARS
350
726
  3
ACAD_LAYOUT
350
1A
  3
ACAD_MATERIAL
350
330
  3
ACAD_MLEADERSTYLE
350
377
  3
ACAD_MLINESTYLE
350
17
  3
ACAD_PLOTSETTINGS
350
19
  3
ACAD_PLOTSTYLENAME
350
E
  3
ACAD_SCALELIST
350
365
  3
ACAD_TABLESTYLE
350
363
  3
ACAD_VISUALSTYLE
350
349
  3
AcadDim
350
358C
  3
ACDB_RECOMPOSE_DATA
350
36E5
  3
AcDbVariableDictionary
350
396
  3
APPDATA
350
725
  3
DWGPROPS
350
36E6
  0
DICTIONARY
  5
38C
330
2
100
AcDbDictionary
280
     1
281
     1
  3
ACAD_LAYERSTATES
360
38D
  0
DICTIONARY
  5
387
330
10
100
AcDbDictionary
280
     1
281
     1
  3
ADSK_XREC_LAYER_RECONCILED
360
388
  0
DICTIONARY
  5
404
330
1F
100
AcDbDictionary
280
     1
281
     1
  3
ACAD_SORTENTS
360
405
  0
DICTIONARY
  5
36E7
102
{ACAD_REACTORS
330
C
102
}
330
C
100
AcDbDictionary
281
     1
  3
INTERFERECOLOR
350
36E8
  0
XRECORD
  5
37B
102
{ACAD_REACTORS
330
C
102
}
330
C
100
AcDbXrecord
280
     1
300
ACDLT
300
2012
300
ACDLT_F_S
  0
DICTIONARY
  5
362
102
{ACAD_REACTORS
330
C
102
}
330
C
100
AcDbDictionary
281
     1
  0
DICTIONARY
  5
D
102
{ACAD_REACTORS
330
C
102
}
330
C
100
AcDbDictionary
281
     1
  0
RASTERVARIABLES
  5
726
102
{ACAD_REACTORS
330
C
102
}
330
C
100
AcDbRasterVariables
 90
        0
 70
     1
 71
     1
 72
     5
  0
DICTIONARY
  5
1A
102
{ACAD_REACTORS
330
C
102
}
330
C
100
AcDbDictionary
281
     1
  3
Layout1
350
1E
  3
Layout2
350
26
  3
Model
350
22
  0
DICTIONARY
  5
330
102
{ACAD_REACTORS
330
C
102
}
330
C
100
AcDbDictionary
281
     1
  3
ByBlock
350
339
  3
ByLayer
350
331
  3
Global
350
341
  0
DICTIONARY
  5
377
102
{ACAD_REACTORS
330
C
102
}
330
C
100
AcDbDictionary
281
     1
  3
Standard
350
378
  0
DICTIONARY
  5
17
102
{ACAD_REACTORS
330
C
102
}
330
C
100
AcDbDictionary
281
     1
  3
Standard
350
18
  0
DICTIONARY
  5
19
102
{ACAD_REACTORS
330
C
102
}
330
C
100
AcDbDictionary
281
     1
  0
ACDBDICTIONARYWDFLT
  5
E
102
{ACAD_REACTORS
330
C
102
}
330
C
100
AcDbDictionary
281
     1
  3
Normal
350
F
100
AcDbDictionaryWithDefault
340
F
  0
DICTIONARY
  5
365
102
{ACAD_REACTORS
330
C
102
}
330
C
100
AcDbDictionary
281
     1
  3
A0
350
366
  3
A1
350
367
  3
A2
350
368
  3
A3
350
369
  3
A4
350
36A
  3
A5
350
36B
  3
A6
350
36C
  3
A7
350
36D
  3
A8
350
36E
  3
A9
350
36F
  3
B0
350
370
  3
B1
350
371
  3
B2
350
372
  3
B3
350
373
  3
B4
350
374
  3
B5
350
375
  3
B6
350
376
  0
DICTIONARY
  5
363
102
{ACAD_REACTORS
330
C
102
}
330
C
100
AcDbDictionary
281
     1
  3
Standard
350
364
  0
DICTIONARY
  5
349
102
{ACAD_REACTORS
330
C
102
}
330
C
100
AcDbDictionary
281
     1
  3
2dWireframe
350
34F
  3
3D Hidden
350
73A
  3
3dWireframe
350
739
  3
Basic
350
34E
  3
Brighten
350
355
  3
ColorChange
350
359
  3
Conceptual
350
352
  3
Dim
350
354
  3
EdgeColorOff
350
361
  3
Facepattern
350
358
  3
Flat
350
34A
  3
FlatWithEdges
350
34B
  3
Gouraud
350
34C
  3
GouraudWithEdges
350
34D
  3
Hidden
350
351
  3
JitterOff
350
35F
  3
Linepattern
350
357
  3
OverhangOff
350
360
  3
Realistic
350
353
  3
Shaded
350
35E
  3
Shaded with edges
350
35D
  3
Shades of Gray
350
35A
  3
Sketchy
350
35B
  3
Thicken
350
356
  3
Wireframe
350
350
  3
X-Ray
350
35C
  0
XRECORD
  5
358C
102
{ACAD_REACTORS
330
C
102
}
330
C
100
AcDbXrecord
280
     1
340
358B
 72
     0
 71
     0
 70
     0
 69
     0
 68
     1
 67
     3
 66
     0
 65
     0
 64
     0
 63
     3
 62
     1
 61
     0
 60
     0
 40
0.0
  0
XRECORD
  5
36E5
102
{ACAD_REACTORS
330
C
102
}
330
C
100
AcDbXrecord
280
     1
 90
        1
330
364
  0
DICTIONARY
  5
396
102
{ACAD_REACTORS
330
C
102
}
330
C
100
AcDbDictionary
281
     1
  3
CANNOSCALE
350
728
  3
CMLEADERSTYLE
350
35EF
  3
CTABLESTYLE
350
35EE
  3
DGNFRAME
350
36E0
  3
DIMASSOC
350
3B4
  3
HIDETEXT
350
36DE
  3
INDEXCTL
350
3B3
  3
LAYEREVAL
350
39C
  3
LAYERNOTIFY
350
39D
  3
LIGHTINGUNITS
350
39B
  3
LOFTANG1
350
36E1
  3
LOFTANG2
350
36E2
  3
LONGITUDE
350
36E3
  3
MSLTSCALE
350
35F0
  3
SOLIDHIST
350
36DF
  3
SORTENTS
350
3B2
  3
XCLIPFRAME
350
60D
  0
DICTIONARY
  5
725
102
{ACAD_REACTORS
330
C
102
}
330
C
100
AcDbDictionary
281
     1
  0
XRECORD
  5
36E6
102
{ACAD_REACTORS
330
C
102
}
330
C
100
AcDbXrecord
280
     1
  1
DWGPROPS COOKIE
  2

  3

  4

  6

  7

  8
cmcmartin
  9

300
=
301
=
302
=
303
=
304
=
305
=
306
=
307
=
308
=
309
=
 40
0.463981712962963
 41
2453214.472070278
 42
2456503.607899769
  1

 90
        0
  0
DICTIONARY
  5
38D
102
{ACAD_REACTORS
330
38C
102
}
330
38C
100
AcDbDictionary
281
     1
  0
XRECORD
  5
388
102
{ACAD_REACTORS
330
387
102
}
330
387
100
AcDbXrecord
280
     1
290
     1
  0
SORTENTSTABLE
  5
405
102
{ACAD_REACTORS
330
404
102
}
330
404
100
AcDbSortentsTable
330
1F
331
697
  5
697
331
680
  5
680
  0
XRECORD
  5
36E8
102
{ACAD_REACTORS
330
36E7
102
}
330
36E7
100
AcDbXrecord
280
     1
1004
1800000001000000000000C0000000000000000000000000
  0
LAYOUT
  5
1E
102
{ACAD_XDICTIONARY
360
36E9
102
}
102
{ACAD_REACTORS
330
1A
102
}
330
1A
100
AcDbPlotSettings
  1

  2
HP LaserJet 1100 (MS)
  4

  6

 40
0.0
 41
0.0
 42
0.0
 43
0.0
 44
0.0
 45
0.0
 46
0.0
 47
0.0
 48
0.0
 49
0.0
140
0.0
141
0.0
142
1.0
143
1.0
 70
   688
 72
     0
 73
     0
 74
     5
  7
monochrome.ctb
 75
    16
147
1.0
148
0.0
149
0.0
100
AcDbLayout
  1
Layout1
 70
     1
 71
     1
 10
0.0
 20
0.0
 11
0.0
 21
0.0
 12
0.0
 22
0.0
 32
0.0
 14
1.000000000000000E+20
 24
1.000000000000000E+20
 34
1.000000000000000E+20
 15
-1.000000000000000E+20
 25
-1.000000000000000E+20
 35
-1.000000000000000E+20
146
0.0
 13
0.0
 23
0.0
 33
0.0
 16
1.0
 26
0.0
 36
0.0
 17
0.0
 27
1.0
 37
0.0
 76
     0
330
1B
  0
LAYOUT
  5
26
102
{ACAD_XDICTIONARY
360
36EC
102
}
102
{ACAD_REACTORS
330
1A
102
}
330
1A
100
AcDbPlotSettings
  1

  2
HP LaserJet 1100 (MS)
  4

  6

 40
0.0
 41
0.0
 42
0.0
 43
0.0
 44
0.0
 45
0.0
 46
0.0
 47
0.0
 48
0.0
 49
0.0
140
0.0
141
0.0
142
1.0
143
1.0
 70
   688
 72
     0
 73
     0
 74
     5
  7
monochrome.ctb
 75
    16
147
1.0
148
0.0
149
0.0
100
AcDbLayout
  1
Layout2
 70
     1
 71
     2
 10
0.0
 20
0.0
 11
12.0
 21
9.0
 12
0.0
 22
0.0
 32
0.0
 14
0.0
 24
0.0
 34
0.0
 15
0.0
 25
0.0
 35
0.0
146
0.0
 13
0.0
 23
0.0
 33
0.0
 16
1.0
 26
0.0
 36
0.0
 17
0.0
 27
1.0
 37
0.0
 76
     0
330
23
  0
LAYOUT
  5
22
102
{ACAD_XDICTIONARY
360
392
102
}
102
{ACAD_REACTORS
330
1A
102
}
330
1A
100
AcDbPlotSettings
  1

  2
none_device
  4
User1308
  6

 40
4.995333194732666
 41
16.93336677551269
 42
4.99530029296875
 43
16.933349609375
 44
914.3153076171875
 45
609.4306640624997
 46
7.619999999999999
 47
-4.318
 48
47.93262828447214
 49
21.5352773440815
140
82.93262828447216
141
44.5352773440815
142
1.0
143
1.0
 70
 11956
 72
     0
 73
     0
 74
     4
  7
monochrome.ctb
 75
    16
147
1.0
148
-1217.488758425592
149
-546.9960445396701
100
AcDbLayout
  1
Model
 70
     1
 71
     0
 10
0.0
 20
0.0
 11
12.0
 21
9.0
 12
0.0
 22
0.0
 32
0.0
 14
0.0
 24
0.0
 34
0.0
 15
0.0
 25
0.0
 35
0.0
146
0.0
 13
0.0
 23
0.0
 33
0.0
 16
1.0
 26
0.0
 36
0.0
 17
0.0
 27
1.0
 37
0.0
 76
     0
330
1F
331
32E
  0
MATERIAL
  5
339
102
{ACAD_XDICTIONARY
360
36F0
102
}
102
{ACAD_REACTORS
330
330
102
}
330
330
100
AcDbMaterial
  1
ByBlock
 72
     0
 43
0.0208333333333333
 43
0.0
 43
0.0
 43
0.0
 43
0.0
 43
0.0208333333333333
 43
0.0
 43
0.0
 43
0.0
 43
0.0
 43
1.0
 43
0.0
 43
0.0
 43
0.0
 43
0.0
 43
1.0
 77
     0
 47
0.0208333333333333
 47
0.0
 47
0.0
 47
0.0
 47
0.0
 47
0.0208333333333333
 47
0.0
 47
0.0
 47
0.0
 47
0.0
 47
1.0
 47
0.0
 47
0.0
 47
0.0
 47
0.0
 47
1.0
171
     0
 49
0.0208333333333333
 49
0.0
 49
0.0
 49
0.0
 49
0.0
 49
0.0208333333333333
 49
0.0
 49
0.0
 49
0.0
 49
0.0
 49
1.0
 49
0.0
 49
0.0
 49
0.0
 49
0.0
 49
1.0
175
     0
142
0.0208333333333333
142
0.0
142
0.0
142
0.0
142
0.0
142
0.0208333333333333
142
0.0
142
0.0
142
0.0
142
0.0
142
1.0
142
0.0
142
0.0
142
0.0
142
0.0
142
1.0
179
     0
144
0.0208333333333333
144
0.0
144
0.0
144
0.0
144
0.0
144
0.0208333333333333
144
0.0
144
0.0
144
0.0
144
0.0
144
1.0
144
0.0
144
0.0
144
0.0
144
0.0
144
1.0
147
0.0208333333333333
147
0.0
147
0.0
147
0.0
147
0.0
147
0.0208333333333333
147
0.0
147
0.0
147
0.0
147
0.0
147
1.0
147
0.0
147
0.0
147
0.0
147
0.0
147
1.0
  0
MATERIAL
  5
331
102
{ACAD_XDICTIONARY
360
36EE
102
}
102
{ACAD_REACTORS
330
330
102
}
330
330
100
AcDbMaterial
  1
ByLayer
 72
     0
 43
0.0208333333333333
 43
0.0
 43
0.0
 43
0.0
 43
0.0
 43
0.0208333333333333
 43
0.0
 43
0.0
 43
0.0
 43
0.0
 43
1.0
 43
0.0
 43
0.0
 43
0.0
 43
0.0
 43
1.0
 77
     0
 47
0.0208333333333333
 47
0.0
 47
0.0
 47
0.0
 47
0.0
 47
0.0208333333333333
 47
0.0
 47
0.0
 47
0.0
 47
0.0
 47
1.0
 47
0.0
 47
0.0
 47
0.0
 47
0.0
 47
1.0
171
     0
 49
0.0208333333333333
 49
0.0
 49
0.0
 49
0.0
 49
0.0
 49
0.0208333333333333
 49
0.0
 49
0.0
 49
0.0
 49
0.0
 49
1.0
 49
0.0
 49
0.0
 49
0.0
 49
0.0
 49
1.0
175
     0
142
0.0208333333333333
142
0.0
142
0.0
142
0.0
142
0.0
142
0.0208333333333333
142
0.0
142
0.0
142
0.0
142
0.0
142
1.0
142
0.0
142
0.0
142
0.0
142
0.0
142
1.0
179
     0
144
0.0208333333333333
144
0.0
144
0.0
144
0.0
144
0.0
144
0.0208333333333333
144
0.0
144
0.0
144
0.0
144
0.0
144
1.0
144
0.0
144
0.0
144
0.0
144
0.0
144
1.0
147
0.0208333333333333
147
0.0
147
0.0
147
0.0
147
0.0
147
0.0208333333333333
147
0.0
147
0.0
147
0.0
147
0.0
147
1.0
147
0.0
147
0.0
147
0.0
147
0.0
147
1.0
  0
MATERIAL
  5
341
102
{ACAD_XDICTIONARY
360
36F2
102
}
102
{ACAD_REACTORS
330
330
102
}
330
330
100
AcDbMaterial
  1
Global
 72
     0
 43
0.0208333333333333
 43
0.0
 43
0.0
 43
0.0
 43
0.0
 43
0.0208333333333333
 43
0.0
 43
0.0
 43
0.0
 43
0.0
 43
1.0
 43
0.0
 43
0.0
 43
0.0
 43
0.0
 43
1.0
 77
     0
 47
0.0208333333333333
 47
0.0
 47
0.0
 47
0.0
 47
0.0
 47
0.0208333333333333
 47
0.0
 47
0.0
 47
0.0
 47
0.0
 47
1.0
 47
0.0
 47
0.0
 47
0.0
 47
0.0
 47
1.0
171
     0
 49
0.0208333333333333
 49
0.0
 49
0.0
 49
0.0
 49
0.0
 49
0.0208333333333333
 49
0.0
 49
0.0
 49
0.0
 49
0.0
 49
1.0
 49
0.0
 49
0.0
 49
0.0
 49
0.0
 49
1.0
175
     0
142
0.0208333333333333
142
0.0
142
0.0
142
0.0
142
0.0
142
0.0208333333333333
142
0.0
142
0.0
142
0.0
142
0.0
142
1.0
142
0.0
142
0.0
142
0.0
142
0.0
142
1.0
179
     0
144
0.0208333333333333
144
0.0
144
0.0
144
0.0
144
0.0
144
0.0208333333333333
144
0.0
144
0.0
144
0.0
144
0.0
144
1.0
144
0.0
144
0.0
144
0.0
144
0.0
144
1.0
147
0.0208333333333333
147
0.0
147
0.0
147
0.0
147
0.0
147
0.0208333333333333
147
0.0
147
0.0
147
0.0
147
0.0
147
1.0
147
0.0
147
0.0
147
0.0
147
0.0
147
1.0
  0
MLEADERSTYLE
  5
378
102
{ACAD_REACTORS
330
377
102
}
330
377
100
AcDbMLeaderStyle
170
     2
171
     1
172
     0
 90
        2
 40
0.0
 41
0.0
173
     1
 91
-1056964608
340
14
 92
       -2
290
     1
 42
0.09
291
     1
 43
0.36
  3
Standard
 44
0.18
300

342
11
174
     1
178
     6
175
     1
176
     0
 93
-1056964608
 45
0.18
292
     0
297
     0
 46
0.18
 94
-1056964608
 47
1.0
 49
1.0
140
1.0
293
     1
141
0.0
294
     1
177
     0
142
1.0
295
     0
296
     0
143
0.125
1001
ACAD_MLEADERVER
1070
     2
  0
MLINESTYLE
  5
18
102
{ACAD_REACTORS
330
17
102
}
330
17
100
AcDbMlineStyle
  2
STANDARD
 70
     0
  3

 62
   256
 51
90.0
 52
90.0
 71
     2
 49
0.5
 62
   256
  6
BYLAYER
 49
-0.5
 62
   256
  6
BYLAYER
  0
ACDBPLACEHOLDER
  5
F
102
{ACAD_REACTORS
330
E
102
}
330
E
  0
SCALE
  5
366
102
{ACAD_REACTORS
330
365
102
}
330
365
100
AcDbScale
 70
     0
300
1:1
140
1.0
141
1.0
290
     1
  0
SCALE
  5
367
102
{ACAD_REACTORS
330
365
102
}
330
365
100
AcDbScale
 70
     0
300
1/128" = 1'-0"
140
0.0078125
141
12.0
290
     0
  0
SCALE
  5
368
102
{ACAD_REACTORS
330
365
102
}
330
365
100
AcDbScale
 70
     0
300
1/64" = 1'-0"
140
0.015625
141
12.0
290
     0
  0
SCALE
  5
369
102
{ACAD_REACTORS
330
365
102
}
330
365
100
AcDbScale
 70
     0
300
1/32" = 1'-0"
140
0.03125
141
12.0
290
     0
  0
SCALE
  5
36A
102
{ACAD_REACTORS
330
365
102
}
330
365
100
AcDbScale
 70
     0
300
1/16" = 1'-0"
140
0.0625
141
12.0
290
     0
  0
SCALE
  5
36B
102
{ACAD_REACTORS
330
365
102
}
330
365
100
AcDbScale
 70
     0
300
3/32" = 1'-0"
140
0.09375
141
12.0
290
     0
  0
SCALE
  5
36C
102
{ACAD_REACTORS
330
365
102
}
330
365
100
AcDbScale
 70
     0
300
1/8" = 1'-0"
140
0.125
141
12.0
290
     0
  0
SCALE
  5
36D
102
{ACAD_REACTORS
330
365
102
}
330
365
100
AcDbScale
 70
     0
300
3/16" = 1'-0"
140
0.1875
141
12.0
290
     0
  0
SCALE
  5
36E
102
{ACAD_REACTORS
330
365
102
}
330
365
100
AcDbScale
 70
     0
300
1/4" = 1'-0"
140
0.25
141
12.0
290
     0
  0
SCALE
  5
36F
102
{ACAD_REACTORS
330
365
102
}
330
365
100
AcDbScale
 70
     0
300
3/8" = 1'-0"
140
0.375
141
12.0
290
     0
  0
SCALE
  5
370
102
{ACAD_REACTORS
330
365
102
}
330
365
100
AcDbScale
 70
     0
300
1/2" = 1'-0"
140
0.5
141
12.0
290
     0
  0
SCALE
  5
371
102
{ACAD_REACTORS
330
365
102
}
330
365
100
AcDbScale
 70
     0
300
3/4" = 1'-0"
140
0.75
141
12.0
290
     0
  0
SCALE
  5
372
102
{ACAD_REACTORS
330
365
102
}
330
365
100
AcDbScale
 70
     0
300
1" = 1'-0"
140
1.0
141
12.0
290
     0
  0
SCALE
  5
373
102
{ACAD_REACTORS
330
365
102
}
330
365
100
AcDbScale
 70
     0
300
1-1/2" = 1'-0"
140
1.5
141
12.0
290
     0
  0
SCALE
  5
374
102
{ACAD_REACTORS
330
365
102
}
330
365
100
AcDbScale
 70
     0
300
3" = 1'-0"
140
3.0
141
12.0
290
     0
  0
SCALE
  5
375
102
{ACAD_REACTORS
330
365
102
}
330
365
100
AcDbScale
 70
     0
300
6" = 1'-0"
140
6.0
141
12.0
290
     0
  0
SCALE
  5
376
102
{ACAD_REACTORS
330
365
102
}
330
365
100
AcDbScale
 70
     0
300
1'-0" = 1'-0"
140
12.0
141
12.0
290
     0
  0
TABLESTYLE
  5
364
102
{ACAD_XDICTIONARY
360
439
102
}
102
{ACAD_REACTORS
330
363
102
}
330
363
100
AcDbTableStyle
  3
Standard
 70
     0
 71
     0
 40
0.06
 41
0.06
280
     0
281
     0
  7
Standard
140
0.18
170
     2
 62
     0
 63
     7
283
     0
274
    -2
284
     1
 64
     0
275
    -2
285
     1
 65
     0
276
    -2
286
     1
 66
     0
277
    -2
287
     1
 67
     0
278
    -2
288
     1
 68
     0
279
    -2
289
     1
 69
     0
  7
Standard
140
0.25
170
     5
 62
     0
 63
     7
283
     0
274
    -2
284
     1
 64
     0
275
    -2
285
     1
 65
     0
276
    -2
286
     1
 66
     0
277
    -2
287
     1
 67
     0
278
    -2
288
     1
 68
     0
279
    -2
289
     1
 69
     0
  7
Standard
140
0.18
170
     5
 62
     0
 63
     7
283
     0
274
    -2
284
     1
 64
     0
275
    -2
285
     1
 65
     0
276
    -2
286
     1
 66
     0
277
    -2
287
     1
 67
     0
278
    -2
288
     1
 68
     0
279
    -2
289
     1
 69
     0
  0
VISUALSTYLE
  5
34F
102
{ACAD_XDICTIONARY
360
36FE
102
}
102
{ACAD_REACTORS
330
349
102
}
330
349
100
AcDbVisualStyle
  2

 70
     4
 71
     0
 72
     2
 73
     0
 90
        0
 40
-0.6
 41
-30.0
 62
     5
 63
     7
 74
     1
 91
        4
 64
     7
 65
   257
 75
     1
175
     1
 42
1.0
 92
        0
 66
   257
 43
1.0
 76
     1
 77
     6
 78
     2
 67
     7
 79
     5
170
     0
171
     0
290
     0
174
     0
 93
        1
 44
0.0
173
     0
291
     0
 45
0.0
1001
ACAD
1000
AcDbSavedByObjectVersion
1070
     0
  0
VISUALSTYLE
  5
73A
102
{ACAD_XDICTIONARY
360
3727
102
}
102
{ACAD_REACTORS
330
349
102
}
330
349
100
AcDbVisualStyle
  2
3D Hidden
 70
     6
 71
     1
 72
     2
 73
     2
 90
        0
 40
-0.6
 41
-30.0
 62
     5
 63
     7
 74
     2
 91
        2
 64
     7
 65
   257
 75
     2
175
     1
 42
40.0
 92
        0
 66
   257
 43
1.0
 76
     1
 77
     6
 78
     2
 67
     7
 79
     3
170
     0
171
     0
290
     0
174
     0
 93
        1
 44
0.0
173
     0
291
     0
 45
0.0
1001
ACAD
1000
AcDbSavedByObjectVersion
1070
     0
  0
VISUALSTYLE
  5
739
102
{ACAD_XDICTIONARY
360
3725
102
}
102
{ACAD_REACTORS
330
349
102
}
330
349
100
AcDbVisualStyle
  2
3dWireframe
 70
     5
 71
     0
 72
     2
 73
     0
 90
        0
 40
-0.6
 41
-30.0
 62
     5
 63
     7
 74
     1
 91
        4
 64
     7
 65
   257
 75
     1
175
     1
 42
1.0
 92
        0
 66
   257
 43
1.0
 76
     1
 77
     6
 78
     2
 67
     7
 79
     5
170
     0
171
     0
290
     0
174
     0
 93
        1
 44
0.0
173
     0
291
     0
 45
0.0
1001
ACAD
1000
AcDbSavedByObjectVersion
1070
     0
  0
VISUALSTYLE
  5
34E
102
{ACAD_XDICTIONARY
360
36FC
102
}
102
{ACAD_REACTORS
330
349
102
}
330
349
100
AcDbVisualStyle
  2

 70
     7
 71
     1
 72
     0
 73
     1
 90
        0
 40
-0.6
 41
-30.0
 62
     5
 63
     7
 74
     0
 91
        4
 64
     7
 65
   257
 75
     1
175
     1
 42
1.0
 92
        8
 66
     7
 43
1.0
 76
     1
 77
     6
 78
     2
 67
     7
 79
     5
170
     0
171
     0
290
     0
174
     0
 93
        1
 44
0.0
173
     0
291
     1
 45
0.0
1001
ACAD
1000
AcDbSavedByObjectVersion
1070
     0
  0
VISUALSTYLE
  5
355
102
{ACAD_XDICTIONARY
360
370A
102
}
102
{ACAD_REACTORS
330
349
102
}
330
349
100
AcDbVisualStyle
  2

 70
    12
 71
     2
 72
     2
 73
     0
 90
        0
 40
-0.6
 41
-30.0
 62
     5
 63
     7
 74
     1
 91
        4
 64
     7
 65
   257
 75
     1
175
     1
 42
1.0
 92
        8
 66
     7
 43
1.0
 76
     1
 77
     6
 78
     2
 67
     7
 79
     5
170
     0
171
     0
290
     0
174
     0
 93
        1
 44
50.0
173
     0
291
     1
 45
0.0
1001
ACAD
1000
AcDbSavedByObjectVersion
1070
     0
  0
VISUALSTYLE
  5
359
102
{ACAD_XDICTIONARY
360
3712
102
}
102
{ACAD_REACTORS
330
349
102
}
330
349
100
AcDbVisualStyle
  2

 70
    16
 71
     2
 72
     2
 73
     3
 90
        0
 40
-0.6
 41
-30.0
 62
     5
 63
     8
 74
     1
 91
        4
 64
     7
 65
   257
 75
     1
175
     1
 42
1.0
 92
        8
 66
     8
 43
1.0
 76
     1
 77
     6
 78
     2
 67
     7
 79
     5
170
     0
171
     0
290
     0
174
     0
 93
        1
 44
0.0
173
     0
291
     1
 45
0.0
1001
ACAD
1000
AcDbSavedByObjectVersion
1070
     0
  0
VISUALSTYLE
  5
352
102
{ACAD_XDICTIONARY
360
3704
102
}
102
{ACAD_REACTORS
330
349
102
}
330
349
100
AcDbVisualStyle
  2

 70
     9
 71
     3
 72
     2
 73
     0
 90
        0
 40
-0.6
 41
-30.0
 62
     5
 63
     7
 74
     2
 91
        2
 64
     7
 65
   257
 75
     1
175
     1
 42
179.0
 92
        8
 66
     7
 43
1.0
 76
     1
 77
     6
 78
     2
 67
     7
 79
     3
170
     0
171
     0
290
     0
174
     0
 93
        1
 44
0.0
173
     0
291
     0
 45
0.0
1001
ACAD
1000
AcDbSavedByObjectVersion
1070
     0
  0
VISUALSTYLE
  5
354
102
{ACAD_XDICTIONARY
360
3708
102
}
102
{ACAD_REACTORS
330
349
102
}
330
349
100
AcDbVisualStyle
  2

 70
    11
 71
     2
 72
     2
 73
     0
 90
        0
 40
-0.6
 41
-30.0
 62
     5
 63
     7
 74
     1
 91
        4
 64
     7
 65
   257
 75
     1
175
     1
 42
1.0
 92
        8
 66
     7
 43
1.0
 76
     1
 77
     6
 78
     2
 67
     7
 79
     5
170
     0
171
     0
290
     0
174
     0
 93
        1
 44
-50.0
173
     0
291
     1
 45
0.0
1001
ACAD
1000
AcDbSavedByObjectVersion
1070
     0
  0
VISUALSTYLE
  5
361
102
{ACAD_XDICTIONARY
360
3722
102
}
102
{ACAD_REACTORS
330
349
102
}
330
349
100
AcDbVisualStyle
  2

 70
    22
 71
     2
 72
     2
 73
     0
 90
        0
 40
-0.6
 41
-30.0
 62
     5
 63
     7
 74
     1
 91
        4
 64
     7
 65
   257
 75
     1
175
     1
 42
1.0
 92
        8
 66
     7
 43
1.0
 76
     1
 77
     6
 78
     2
 67
     7
 79
     5
170
     0
171
     0
290
     0
174
     0
 93
        1
 44
0.0
173
     0
291
     1
 45
0.0
1001
ACAD
1000
AcDbSavedByObjectVersion
1070
     0
  0
VISUALSTYLE
  5
358
102
{ACAD_XDICTIONARY
360
3710
102
}
102
{ACAD_REACTORS
330
349
102
}
330
349
100
AcDbVisualStyle
  2

 70
    15
 71
     2
 72
     2
 73
     0
 90
        0
 40
-0.6
 41
-30.0
 62
     5
 63
     7
 74
     1
 91
        4
 64
     7
 65
   257
 75
     1
175
     1
 42
1.0
 92
        8
 66
     7
 43
1.0
 76
     1
 77
     6
 78
     2
 67
     7
 79
     5
170
     0
171
     0
290
     0
174
     0
 93
        1
 44
0.0
173
     0
291
     1
 45
0.0
1001
ACAD
1000
AcDbSavedByObjectVersion
1070
     0
  0
VISUALSTYLE
  5
34A
102
{ACAD_XDICTIONARY
360
36F4
102
}
102
{ACAD_REACTORS
330
349
102
}
330
349
100
AcDbVisualStyle
  2

 70
     0
 71
     2
 72
     1
 73
     1
 90
        2
 40
-0.6
 41
30.0
 62
     5
 63
     7
 74
     0
 91
        0
 64
     7
 65
   257
 75
     1
175
     1
 42
1.0
 92
        8
 66
     7
 43
1.0
 76
     1
 77
     6
 78
     2
 67
     7
 79
     5
170
     0
171
     0
290
     0
174
     0
 93
       13
 44
0.0
173
     0
291
     1
 45
0.0
1001
ACAD
1000
AcDbSavedByObjectVersion
1070
     0
  0
VISUALSTYLE
  5
34B
102
{ACAD_XDICTIONARY
360
36F6
102
}
102
{ACAD_REACTORS
330
349
102
}
330
349
100
AcDbVisualStyle
  2

 70
     1
 71
     2
 72
     1
 73
     1
 90
        2
 40
-0.6
 41
30.0
 62
     5
 63
     7
 74
     1
 91
        0
 64
     7
 65
   257
 75
     1
175
     1
 42
1.0
 92
        0
 66
   257
 43
1.0
 76
     1
 77
     6
 78
     2
 67
     7
 79
     5
170
     0
171
     0
290
     0
174
     0
 93
       13
 44
0.0
173
     0
291
     1
 45
0.0
1001
ACAD
1000
AcDbSavedByObjectVersion
1070
     0
  0
VISUALSTYLE
  5
34C
102
{ACAD_XDICTIONARY
360
36F8
102
}
102
{ACAD_REACTORS
330
349
102
}
330
349
100
AcDbVisualStyle
  2

 70
     2
 71
     2
 72
     2
 73
     1
 90
        2
 40
-0.6
 41
30.0
 62
     5
 63
     7
 74
     0
 91
        0
 64
     7
 65
   257
 75
     1
175
     1
 42
1.0
 92
        0
 66
     7
 43
1.0
 76
     1
 77
     6
 78
     2
 67
     7
 79
     5
170
     0
171
     0
290
     0
174
     0
 93
       13
 44
0.0
173
     0
291
     1
 45
0.0
1001
ACAD
1000
AcDbSavedByObjectVersion
1070
     0
  0
VISUALSTYLE
  5
34D
102
{ACAD_XDICTIONARY
360
36FA
102
}
102
{ACAD_REACTORS
330
349
102
}
330
349
100
AcDbVisualStyle
  2

 70
     3
 71
     2
 72
     2
 73
     1
 90
        2
 40
-0.6
 41
30.0
 62
     5
 63
     7
 74
     1
 91
        0
 64
     7
 65
   257
 75
     1
175
     1
 42
1.0
 92
        0
 66
   257
 43
1.0
 76
     1
 77
     6
 78
     2
 67
     7
 79
     5
170
     0
171
     0
290
     0
174
     0
 93
       13
 44
0.0
173
     0
291
     1
 45
0.0
1001
ACAD
1000
AcDbSavedByObjectVersion
1070
     0
  0
VISUALSTYLE
  5
351
102
{ACAD_XDICTIONARY
360
3702
102
}
102
{ACAD_REACTORS
330
349
102
}
330
349
100
AcDbVisualStyle
  2

 70
     6
 71
     1
 72
     2
 73
     2
 90
        0
 40
-0.6
 41
-30.0
 62
     5
 63
     7
 74
     2
 91
        2
 64
     7
 65
   257
 75
     2
175
     1
 42
40.0
 92
        0
 66
   257
 43
1.0
 76
     1
 77
     6
 78
     2
 67
     7
 79
     3
170
     0
171
     0
290
     0
174
     0
 93
        1
 44
0.0
173
     0
291
     0
 45
0.0
1001
ACAD
1000
AcDbSavedByObjectVersion
1070
     0
  0
VISUALSTYLE
  5
35F
102
{ACAD_XDICTIONARY
360
371E
102
}
102
{ACAD_REACTORS
330
349
102
}
330
349
100
AcDbVisualStyle
  2

 70
    20
 71
     2
 72
     2
 73
     0
 90
        0
 40
-0.6
 41
-30.0
 62
     5
 63
     7
 74
     1
 91
        4
 64
     7
 65
   257
 75
     1
175
     1
 42
1.0
 92
       10
 66
     7
 43
1.0
 76
     1
 77
     6
 78
     2
 67
     7
 79
     5
170
     0
171
     0
290
     0
174
     0
 93
        1
 44
0.0
173
     0
291
     1
 45
0.0
1001
ACAD
1000
AcDbSavedByObjectVersion
1070
     0
  0
VISUALSTYLE
  5
357
102
{ACAD_XDICTIONARY
360
370E
102
}
102
{ACAD_REACTORS
330
349
102
}
330
349
100
AcDbVisualStyle
  2

 70
    14
 71
     2
 72
     2
 73
     0
 90
        0
 40
-0.6
 41
-30.0
 62
     5
 63
     7
 74
     1
 91
        4
 64
     7
 65
   257
 75
     7
175
     7
 42
1.0
 92
        8
 66
     7
 43
1.0
 76
     1
 77
     6
 78
     2
 67
     7
 79
     5
170
     0
171
     0
290
     0
174
     0
 93
        1
 44
0.0
173
     0
291
     1
 45
0.0
1001
ACAD
1000
AcDbSavedByObjectVersion
1070
     0
  0
VISUALSTYLE
  5
360
102
{ACAD_XDICTIONARY
360
3720
102
}
102
{ACAD_REACTORS
330
349
102
}
330
349
100
AcDbVisualStyle
  2

 70
    21
 71
     2
 72
     2
 73
     0
 90
        0
 40
-0.6
 41
-30.0
 62
     5
 63
     7
 74
     1
 91
        4
 64
     7
 65
   257
 75
     1
175
     1
 42
1.0
 92
        9
 66
     7
 43
1.0
 76
     1
 77
     6
 78
     2
 67
     7
 79
     5
170
     0
171
     0
290
     0
174
     0
 93
        1
 44
0.0
173
     0
291
     1
 45
0.0
1001
ACAD
1000
AcDbSavedByObjectVersion
1070
     0
  0
VISUALSTYLE
  5
353
102
{ACAD_XDICTIONARY
360
3706
102
}
102
{ACAD_REACTORS
330
349
102
}
330
349
100
AcDbVisualStyle
  2

 70
     8
 71
     2
 72
     3
 73
     0
 90
        2
 40
-0.6
 41
30.0
 62
     5
 63
     7
 74
     0
 91
        0
 64
     7
 65
   257
 75
     1
175
     1
 42
1.0
 92
        8
 66
   257
 43
1.0
 76
     1
 77
     6
 78
     2
 67
     7
 79
     3
170
     0
171
     0
290
     0
174
     0
 93
       13
 44
0.0
173
     0
291
     0
 45
0.0
1001
ACAD
1000
AcDbSavedByObjectVersion
1070
     0
  0
VISUALSTYLE
  5
35E
102
{ACAD_XDICTIONARY
360
371C
102
}
102
{ACAD_REACTORS
330
349
102
}
330
349
100
AcDbVisualStyle
  2

 70
    27
 71
     2
 72
     2
 73
     1
 90
        2
 40
-0.6
 41
30.0
 62
     5
 63
     7
 74
     0
 91
        4
 64
     7
 65
   257
 75
     1
175
     1
 42
1.0
 92
        8
 66
   257
 43
1.0
 76
     1
 77
     6
 78
     2
 67
     8
 79
     3
170
     0
171
     0
290
     0
174
     0
 93
        5
 44
0.0
173
     0
291
     0
 45
0.0
1001
ACAD
1000
AcDbSavedByObjectVersion
1070
     0
  0
VISUALSTYLE
  5
35D
102
{ACAD_XDICTIONARY
360
371A
102
}
102
{ACAD_REACTORS
330
349
102
}
330
349
100
AcDbVisualStyle
  2

 70
    26
 71
     2
 72
     2
 73
     1
 90
        2
 40
-0.6
 41
30.0
 62
     5
 63
     7
 74
     1
 91
       10
 64
     7
 65
   257
 75
     2
175
     1
 42
1.0
 92
        8
 66
   257
 43
1.0
 76
     1
 77
     6
 78
     2
 67
     7
 79
     3
170
     0
171
     0
290
     0
174
     0
 93
        5
 44
0.0
173
     0
291
     0
 45
0.0
1001
ACAD
1000
AcDbSavedByObjectVersion
1070
     0
  0
VISUALSTYLE
  5
35A
102
{ACAD_XDICTIONARY
360
3714
102
}
102
{ACAD_REACTORS
330
349
102
}
330
349
100
AcDbVisualStyle
  2

 70
    23
 71
     2
 72
     2
 73
     3
 90
        0
 40
-0.6
 41
-30.0
 62
     5
 63
     7
 74
     2
 91
        2
 64
     7
 65
     7
 75
     1
175
     1
 42
40.0
 92
        8
 66
     7
 43
1.0
 76
     1
 77
     6
 78
     2
 67
     7
 79
     3
170
     0
171
     0
290
     0
174
     0
 93
        1
 44
0.0
173
     0
291
     0
 45
0.0
1001
ACAD
1000
AcDbSavedByObjectVersion
1070
     0
  0
VISUALSTYLE
  5
35B
102
{ACAD_XDICTIONARY
360
3716
102
}
102
{ACAD_REACTORS
330
349
102
}
330
349
100
AcDbVisualStyle
  2

 70
    24
 71
     1
 72
     2
 73
     2
 90
        0
 40
-0.6
 41
-30.0
 62
     5
 63
     7
 74
     2
 91
        2
 64
     7
 65
     7
 75
     1
175
     1
 42
40.0
 92
       11
 66
     7
 43
1.0
 76
     1
 77
     6
 78
     2
 67
     7
 79
     6
170
     0
171
     0
290
     0
174
     0
 93
        1
 44
0.0
173
     0
291
     0
 45
0.0
1001
ACAD
1000
AcDbSavedByObjectVersion
1070
     0
  0
VISUALSTYLE
  5
356
102
{ACAD_XDICTIONARY
360
370C
102
}
102
{ACAD_REACTORS
330
349
102
}
330
349
100
AcDbVisualStyle
  2

 70
    13
 71
     2
 72
     2
 73
     0
 90
        0
 40
-0.6
 41
-30.0
 62
     5
 63
     7
 74
     1
 91
        4
 64
     7
 65
   257
 75
     1
175
     1
 42
1.0
 92
       12
 66
     7
 43
1.0
 76
     1
 77
     6
 78
     2
 67
     7
 79
     5
170
     0
171
     0
290
     0
174
     0
 93
        1
 44
0.0
173
     0
291
     1
 45
0.0
1001
ACAD
1000
AcDbSavedByObjectVersion
1070
     0
  0
VISUALSTYLE
  5
350
102
{ACAD_XDICTIONARY
360
3700
102
}
102
{ACAD_REACTORS
330
349
102
}
330
349
100
AcDbVisualStyle
  2

 70
     5
 71
     0
 72
     2
 73
     0
 90
        0
 40
-0.6
 41
-30.0
 62
     5
 63
     7
 74
     1
 91
        4
 64
     7
 65
   257
 75
     1
175
     1
 42
1.0
 92
        0
 66
   257
 43
1.0
 76
     1
 77
     6
 78
     2
 67
     7
 79
     3
170
     0
171
     0
290
     0
174
     0
 93
        1
 44
0.0
173
     0
291
     0
 45
0.0
1001
ACAD
1000
AcDbSavedByObjectVersion
1070
     0
  0
VISUALSTYLE
  5
35C
102
{ACAD_XDICTIONARY
360
3718
102
}
102
{ACAD_REACTORS
330
349
102
}
330
349
100
AcDbVisualStyle
  2

 70
    25
 71
     2
 72
     2
 73
     1
 90
        1
 40
0.5
 41
-30.0
 62
     5
 63
     7
 74
     1
 91
        0
 64
     7
 65
   257
 75
     1
175
     1
 42
1.0
 92
        8
 66
     7
 43
1.0
 76
     1
 77
     6
 78
     2
 67
     7
 79
     3
170
     0
171
     0
290
     0
174
     0
 93
       13
 44
0.0
173
     0
291
     0
 45
0.0
1001
ACAD
1000
AcDbSavedByObjectVersion
1070
     0
  0
DICTIONARYVAR
  5
728
102
{ACAD_REACTORS
330
396
102
}
330
396
100
DictionaryVariables
280
     0
  1
1:1
  0
DICTIONARYVAR
  5
35EF
102
{ACAD_REACTORS
330
396
102
}
330
396
100
DictionaryVariables
280
     0
  1
STANDARD
  0
DICTIONARYVAR
  5
35EE
102
{ACAD_REACTORS
330
396
102
}
330
396
100
DictionaryVariables
280
     0
  1
STANDARD
  0
DICTIONARYVAR
  5
36E0
102
{ACAD_REACTORS
330
396
102
}
330
396
100
DictionaryVariables
280
     0
  1
2
  0
DICTIONARYVAR
  5
3B4
102
{ACAD_REACTORS
330
396
102
}
330
396
100
DictionaryVariables
280
     0
  1
1
  0
DICTIONARYVAR
  5
36DE
102
{ACAD_REACTORS
330
396
102
}
330
396
100
DictionaryVariables
280
     0
  1
1
  0
DICTIONARYVAR
  5
3B3
102
{ACAD_REACTORS
330
396
102
}
330
396
100
DictionaryVariables
280
     0
  1
0
  0
DICTIONARYVAR
  5
39C
102
{ACAD_REACTORS
330
396
102
}
330
396
100
DictionaryVariables
280
     0
  1
1
  0
DICTIONARYVAR
  5
39D
102
{ACAD_REACTORS
330
396
102
}
330
396
100
DictionaryVariables
280
     0
  1
15
  0
DICTIONARYVAR
  5
39B
102
{ACAD_REACTORS
330
396
102
}
330
396
100
DictionaryVariables
280
     0
  1
0
  0
DICTIONARYVAR
  5
36E1
102
{ACAD_REACTORS
330
396
102
}
330
396
100
DictionaryVariables
280
     0
  1
1.570796
  0
DICTIONARYVAR
  5
36E2
102
{ACAD_REACTORS
330
396
102
}
330
396
100
DictionaryVariables
280
     0
  1
1.570796
  0
DICTIONARYVAR
  5
36E3
102
{ACAD_REACTORS
330
396
102
}
330
396
100
DictionaryVariables
280
     0
  1
-122.394000
  0
DICTIONARYVAR
  5
35F0
102
{ACAD_REACTORS
330
396
102
}
330
396
100
DictionaryVariables
280
     0
  1
0
  0
DICTIONARYVAR
  5
36DF
102
{ACAD_REACTORS
330
396
102
}
330
396
100
DictionaryVariables
280
     0
  1
1
  0
DICTIONARYVAR
  5
3B2
102
{ACAD_REACTORS
330
396
102
}
330
396
100
DictionaryVariables
280
     0
  1
127
  0
DICTIONARYVAR
  5
60D
102
{ACAD_REACTORS
330
396
102
}
330
396
100
DictionaryVariables
280
     0
  1
2
  0
DICTIONARY
  5
36E9
330
1E
100
AcDbDictionary
280
     1
281
     1
  3
ACAD_XREC_ROUNDTRIP
360
36EA
  0
DICTIONARY
  5
36EC
330
26
100
AcDbDictionary
280
     1
281
     1
  3
ACAD_XREC_ROUNDTRIP
360
36ED
  0
DICTIONARY
  5
392
330
22
100
AcDbDictionary
280
     1
281
     1
  3
ACAD_XREC_ROUNDTRIP
360
36EB
  3
ADSK_XREC_LAYOUTTHUMBNAIL
360
393
  0
DICTIONARY
  5
36F0
330
339
100
AcDbDictionary
280
     1
281
     1
  3
ACAD_XREC_ROUNDTRIP
360
36F1
  0
DICTIONARY
  5
36EE
330
331
100
AcDbDictionary
280
     1
281
     1
  3
ACAD_XREC_ROUNDTRIP
360
36EF
  0
DICTIONARY
  5
36F2
330
341
100
AcDbDictionary
280
     1
281
     1
  3
ACAD_XREC_ROUNDTRIP
360
36F3
  0
DICTIONARY
  5
439
330
364
100
AcDbDictionary
280
     1
281
     1
  3
ACAD_ROUNDTRIP_2008_TABLESTYLE_CELLSTYLEMAP
360
36E4
  3
ACAD_XREC_ROUNDTRIP
360
3724
  0
DICTIONARY
  5
36FE
330
34F
100
AcDbDictionary
280
     1
281
     1
  3
ACAD_XREC_ROUNDTRIP
360
36FF
  0
DICTIONARY
  5
3727
330
73A
100
AcDbDictionary
280
     1
281
     1
  3
ACAD_XREC_ROUNDTRIP
360
3728
  0
DICTIONARY
  5
3725
330
739
100
AcDbDictionary
280
     1
281
     1
  3
ACAD_XREC_ROUNDTRIP
360
3726
  0
DICTIONARY
  5
36FC
330
34E
100
AcDbDictionary
280
     1
281
     1
  3
ACAD_XREC_ROUNDTRIP
360
36FD
  0
DICTIONARY
  5
370A
330
355
100
AcDbDictionary
280
     1
281
     1
  3
ACAD_XREC_ROUNDTRIP
360
370B
  0
DICTIONARY
  5
3712
330
359
100
AcDbDictionary
280
     1
281
     1
  3
ACAD_XREC_ROUNDTRIP
360
3713
  0
DICTIONARY
  5
3704
330
352
100
AcDbDictionary
280
     1
281
     1
  3
ACAD_XREC_ROUNDTRIP
360
3705
  0
DICTIONARY
  5
3708
330
354
100
AcDbDictionary
280
     1
281
     1
  3
ACAD_XREC_ROUNDTRIP
360
3709
  0
DICTIONARY
  5
3722
330
361
100
AcDbDictionary
280
     1
281
     1
  3
ACAD_XREC_ROUNDTRIP
360
3723
  0
DICTIONARY
  5
3710
330
358
100
AcDbDictionary
280
     1
281
     1
  3
ACAD_XREC_ROUNDTRIP
360
3711
  0
DICTIONARY
  5
36F4
330
34A
100
AcDbDictionary
280
     1
281
     1
  3
ACAD_XREC_ROUNDTRIP
360
36F5
  0
DICTIONARY
  5
36F6
330
34B
100
AcDbDictionary
280
     1
281
     1
  3
ACAD_XREC_ROUNDTRIP
360
36F7
  0
DICTIONARY
  5
36F8
330
34C
100
AcDbDictionary
280
     1
281
     1
  3
ACAD_XREC_ROUNDTRIP
360
36F9
  0
DICTIONARY
  5
36FA
330
34D
100
AcDbDictionary
280
     1
281
     1
  3
ACAD_XREC_ROUNDTRIP
360
36FB
  0
DICTIONARY
  5
3702
330
351
100
AcDbDictionary
280
     1
281
     1
  3
ACAD_XREC_ROUNDTRIP
360
3703
  0
DICTIONARY
  5
371E
330
35F
100
AcDbDictionary
280
     1
281
     1
  3
ACAD_XREC_ROUNDTRIP
360
371F
  0
DICTIONARY
  5
370E
330
357
100
AcDbDictionary
280
     1
281
     1
  3
ACAD_XREC_ROUNDTRIP
360
370F
  0
DICTIONARY
  5
3720
330
360
100
AcDbDictionary
280
     1
281
     1
  3
ACAD_XREC_ROUNDTRIP
360
3721
  0
DICTIONARY
  5
3706
330
353
100
AcDbDictionary
280
     1
281
     1
  3
ACAD_XREC_ROUNDTRIP
360
3707
  0
DICTIONARY
  5
371C
330
35E
100
AcDbDictionary
280
     1
281
     1
  3
ACAD_XREC_ROUNDTRIP
360
371D
  0
DICTIONARY
  5
371A
330
35D
100
AcDbDictionary
280
     1
281
     1
  3
ACAD_XREC_ROUNDTRIP
360
371B
  0
DICTIONARY
  5
3714
330
35A
100
AcDbDictionary
280
     1
281
     1
  3
ACAD_XREC_ROUNDTRIP
360
3715
  0
DICTIONARY
  5
3716
330
35B
100
AcDbDictionary
280
     1
281
     1
  3
ACAD_XREC_ROUNDTRIP
360
3717
  0
DICTIONARY
  5
370C
330
356
100
AcDbDictionary
280
     1
281
     1
  3
ACAD_XREC_ROUNDTRIP
360
370D
  0
DICTIONARY
  5
3700
330
350
100
AcDbDictionary
280
     1
281
     1
  3
ACAD_XREC_ROUNDTRIP
360
3701
  0
DICTIONARY
  5
3718
330
35C
100
AcDbDictionary
280
     1
281
     1
  3
ACAD_XREC_ROUNDTRIP
360
3719
  0
XRECORD
  5
36EA
102
{ACAD_REACTORS
330
36E9
102
}
330
36E9
100
AcDbXrecord
280
     1
102
SHADEPLOT
 70
     0
102
SHADEPLOTRESLEVEL
 70
     2
102
SHADEPLOTCUSTOMDPI
 70
   300
  0
XRECORD
  5
36ED
102
{ACAD_REACTORS
330
36EC
102
}
330
36EC
100
AcDbXrecord
280
     1
102
SHADEPLOT
 70
     0
102
SHADEPLOTRESLEVEL
 70
     2
102
SHADEPLOTCUSTOMDPI
 70
   300
  0
XRECORD
  5
36EB
102
{ACAD_REACTORS
330
392
102
}
330
392
100
AcDbXrecord
280
     1
102
SHADEPLOT
 70
     0
102
SHADEPLOTRESLEVEL
 70
     2
102
SHADEPLOTCUSTOMDPI
 70
   300
  0
XRECORD
  5
393
102
{ACAD_REACTORS
330
392
102
}
330
392
100
AcDbXrecord
280
     1
310
280000000001000072000000010008000000000000720000000000000000000000010000000000000000000000000000C8C8C8000000000000000000000000000000000000000000000000000000000000000000330000006600000099000000CC000000FF00000000330000333300006633000099330000CC330000FF3300
310
0000660000336600006666000099660000CC660000FF66000000990000339900006699000099990000CC990000FF99000000CC000033CC000066CC000099CC0000CCCC0000FFCC000000FF000033FF000066FF000099FF0000CCFF0000FFFF000000003300330033006600330099003300CC003300FF003300003333003333
310
33006633330099333300CC333300FF33330000663300336633006666330099663300CC663300FF66330000993300339933006699330099993300CC993300FF99330000CC330033CC330066CC330099CC3300CCCC3300FFCC330000FF330033FF330066FF330099FF3300CCFF3300FFFF330000006600330066006600660099
310
006600CC006600FF00660000336600333366006633660099336600CC336600FF33660000666600336666006666660099666600CC666600FF66660000996600339966006699660099996600CC996600FF99660000CC660033CC660066CC660099CC6600CCCC6600FFCC660000FF660033FF660066FF660099FF6600CCFF6600
310
FFFF660000009900330099006600990099009900CC009900FF00990000339900333399006633990099339900CC339900FF33990000669900336699006666990099669900CC669900FF66990000999900339999006699990099999900CC999900FF99990000CC990033CC990066CC990099CC9900CCCC9900FFCC990000FF99
310
0033FF990066FF990099FF9900CCFF9900FFFF99000000CC003300CC006600CC009900CC00CC00CC00FF00CC000033CC003333CC006633CC009933CC00CC33CC00FF33CC000066CC003366CC006666CC009966CC00CC66CC00FF66CC000099CC003399CC006699CC009999CC00CC99CC00FF99CC0000CCCC0033CCCC0066CC
310
CC0099CCCC00CCCCCC00FFCCCC0000FFCC0033FFCC0066FFCC0099FFCC00CCFFCC00FFFFCC000000FF003300FF006600FF009900FF00CC00FF00FF00FF000033FF003333FF006633FF009933FF00CC33FF00FF33FF000066FF003366FF006666FF009966FF00CC66FF00FF66FF000099FF003399FF006699FF009999FF00CC
310
99FF00FF99FF0000CCFF0033CCFF0066CCFF0099CCFF00CCCCFF00FFCCFF0000FFFF0033FFFF0066FFFF0099FFFF00CCFFFF00FFFFFF00000000000D0D0D001A1A1A00282828003535350043434300505050005D5D5D006B6B6B00787878008686860093939300A1A1A100AEAEAE00BBBBBB00C9C9C900D6D6D600E4E4E400
310
F1F1F100FFFFFF000000000000000000000000000000000000000000000000000000000000000000000000000000000000000000000000000000000000000000000000000000000000000000000000000000000000000000000000000000000000000000000000000000000000000000000000000000000000000000000000
310
00000000000000000000000000000000000000000000000000000000000000000000000000000000000000000000000000000000000000000000000000000000000000000000000000000000000000000000000000000000000000000000000000000000000000000000000000000000000000000000000000000000000000
310
00000000000000000000000000000000000000000000000000000000000000000000000000000000000000000000000000000000000000000000000000000000000000000000000000000000000000000000000000000000000000000000000000000000000000000000000000000000000000000000000000000000000000
310
00000000000000000000000000000000000000000000000000000000000000000000000000000000000000000000000000000000000000000000000000000000000000000000000000000000000000000000000000000000000000000000000000000000000000000000000000000000000000000000000000000000000000
310
00000000000000000000000000000000000000000000000000000000000000000000000000000000000000000000000000000000000000000000000000000000000000000000000000000000000000000000000000000000000000000000000000000000000000000000000000000000000000000000000000000000000000
310
00000000000000000000000000000000000000000000000000000000000000000000000000000000000000000000000000000000000000000000000000000000000000000000000000000000000000000000000000000000000000000000000000000000000000000000000000000000000000000000000000000000000000
310
00000000000000000000000000000000000000000000000000000000000000000000000000000000000000000000000000000000000000000000000000000000000000000000000000000000000000000000000000000000000000000000000000000000000000000000000000000000000000000000000000000000000000
310
00000000000000000000000000000000000000000000000000000000000000000000000000000000000000000000000000000000000000000000000000000000000000000000000000000000000000000000000000000000000000000000000000000000000000000000000000000000000000000000000000000000000000
310
00000000000000000000000000000000000000000000000000000000000000000000000000000000000000000000000000000000000000000000000000000000000000000000000000000000000000000000000000000000000000000000000000000000000000000000000000000000000000000000000000000000000000
310
00000000000000000000000000000000000000000000000000000000000000000000000000000000000000000000000000000000000000000000000000000000000000000000000000000000000000000000000000000000000000000000000000000000000000000000000000000000000000000000000000000000000000
310
00000000000000000000000000000000000000000000000000000000000000000000000000000000000000000000000000000000000000000000000000000000000000000000000000000000000000000000000000000000000000000000000000000000000000000000000000000000000000000000000000000000000000
310
00000000000000000000000000000000000000000000000000000000000000000000000000000000000000000000000000000000000000000000000000000000000000000000000000000000000000000000000000000000000000000000000000000000000000000000000000000000000000000000000000000000000000
310
00000000000000000000000000000000000000000000000000000000000000000000000000000000000000000000000000000000000000000000000000000000000000000000000000000000000000000000000000000000000000000000000000000000000000000000000000000000000000000000000000000000000000
310
00000000000000000000000000000000000000000000000000000000000000000000000000000000000000000000000000000000000000000000000000000000000000000000000000000000000000000000000000000000000000000000000000000000000000000000000000000000000000000000000000000000000000
310
00000000000000000000000000000000000000000000000000000000000000000000000000000000000000000000000000000000000000000000000000000000000000000000000000000000000000000000000000000000000000000000000000000000000000000000000000000000000000000000000000000000000000
310
00000000000000000000000000000000000000000000000000000000000000000000000000000000000000000000000000000000000000000000000000000000000000000000000000000000000000000000000000000000000000000000000000000000000000000000000000000000000000000000000000000000000000
310
00000000000000000000000000000000000000000000000000000000000000000000000000000000000000000000000000000000000000000000000000000000000000000000000000000000000000000000000000000000000000000000000000000000000000000000000000000000000000000000000000000000000000
310
00000000000000000000000000000000000000000000000000000000000000000000000000000000000000000000000000000000000000000000000000000000000000000000000000000000000000000000000000000000000000000000000000000000000000000000000000000000000000000000000000000000000000
310
00000000000000000000000000000000000000000000000000000000000000000000000000000000000000000000000000000000000000000000000000000000000000000000000000000000000000000000000000000000000000000000000000000000000000000000000000000000000000000000000000000000000000
310
00000000000000000000000000000000000000000000000000000000000000000000000000000000000000000000000000000000000000000000000000000000000000000000000000000000000000000000000000000000000000000000000000000000000000000000000000000000000000000000000000000000000000
310
00000000000000000000000000000000000000000000000000000000000000000000000000000000000000000000000000000000000000000000000000000000000000000000000000000000000000000000000000000000000000000000000000000000000000000000000000000000000000000000000000000000000000
310
00000000000000000000000000000000000000000000000000000000000000000000000000000000000000000000000000000000000000000000000000000000000000000000000000000000000000000000000000000000000000000000000000000000000000000000000000000000000000000000000000000000000000
310
00000000000000000000000000000000000000000000000000000000000000000000000000000000000000000000000000000000000000000000000000000000000000000000000000000000000000000000000000000000000000000000000000000000000000000000000000000000000000000000000000000000000000
310
00000000000000000000000000000000000000000000000000000000000000000000000000000000000000000000000000000000000000000000000000000000000000000000000000000000000000000000000000000000000000000000000000000000000000000000000000000000000000000000000000000000000000
310
00000000000000000000000000000000000000000000000000000000000000000000000000000000000000000000000000000000000000000000000000000000000000000000000000000000000000000000000000000000000000000000000000000000000000000000000000000000000000000000000000000000000000
310
00000000000000000000000000000000000000000000000000000000000000000000000000000000000000000000000000000000000000000000000000000000000000000000000000000000000000000000000000000000000000000000000000000000000000000000000000000000000000000000000000000000000000
310
00000000000000000000000000000000000000000000000000000000000000000000000000000000000000000000000000000000000000000000000000000000000000000000000000000000000000000000000000000000000000000000000000000000000000000000000000000000000000000000000000000000000000
310
00000000000000000000000000000000000000000000000000000000000000000000000000000000000000000000000000000000000000000000000000000000000000000000000000000000000000000000000000000000000000000000000000000000000000000000000000000000000000000000000000000000000000
310
00000000000000000000000000000000000000000000000000000000000000000000000000000000000000000000000000000000000000000000000000000000000000000000000000000000000000000000000000000000000000000000000000000000000000000000000000000000000000000000000000000000000000
310
00000000000000000000000000000000000000000000000000000000000000000000000000000000000000000000000000000000000000000000000000000000000000000000000000000000000000000000000000000000000000000000000000000000000000000000000000000000000000000000000000000000000000
310
00000000000000000000000000000000000000000000000000000000000000000000000000000000000000000000000000000000000000000000000000000000000000000000000000000000000000000000000000000000000000000000000000000000000000000000000000000000000000000000000000000000000000
310
00000000000000000000000000000000000000000000000000000000000000000000000000000000000000000000000000000000000000000000000000000000000000000000000000000000000000000000000000000000000000000000000000000000000000000000000000000000000000000000000000000000000000
310
00000000000000000000000000000000000000000000000000000000000000000000000000000000000000000000000000000000000000000000000000000000000000000000000000000000000000000000000000000000000000000000000000000000000000000000000000000000000000000000000000000000000000
310
00000000000000000000000000000000000000000000000000000000000000000000000000000000000000000000000000000000000000000000000000000000000000000000000000000000000000000000000000000000000000000000000000000000000000000000000000000000000000000000000000000000000000
310
00000000000000000000000000000000000000000000000000000000000000000000000000000000000000000000000000000000000000000000000000000000000000000000000000000000000000000000000000000000000000000000000000000000000000000000000000000000000000000000000000000000000000
310
00000000000000000000000000000000000000000000000000000000000000000000000000000000000000000000000000000000000000000000000000000000000000000000000000000000000000000000000000000000000000000000000000000000000000000000000000000000000000000000000000000000000000
310
00000000000000000000000000000000000000000000000000000000000000000000000000000000000000000000000000000000000000000000000000000000000000000000000000000000000000000000000000000000000000000000000000000000000000000000000000000000000000000000000000000000000000
310
00000000000000000000000000000000000000000000000000000000000000000000000000000000000000000000000000000000000000000000000000000000000000000000000000000000000000000000000000000000000000000000000000000000000000000000000000000000000000000000000000000000000000
310
00000000000000000000000000000000000000000000000000000000000000000000000000000000000000000000000000000000000000000000000000000000000000000000000000000000000000000000000000000000000000000000000000000000000000000000000000000000000000000000000000000000000000
310
00000000000000000000000000000000000000000000000000000000000000000000000000000000000000000000000000000000000000000000000000000000000000000000000000000000000000000000000000000000000000000000000000000000000000000000000000000000000000000000000000000000000000
310
00000000000000000000000000000000000000000000000000000000000000000000000000000000000000000000000000000000000000000000000000000000000000000000000000000000000000000000000000000000000000000000000000000000000000000000000000000000000000000000000000000000000000
310
00000000000000000000000000000000000000000000000000000000000000000000000000000000000000000000000000000000000000000000000000000000000000000000000000000000000000000000000000000000000000000000000000000000000000000000000000000000000000000000000000000000000000
310
00000000000000000000000000000000000000000000000000000000000000000000000000000000000000000000000000000000000000000000000000000000000000000000000000000000000000000000000000000000000000000000000000000000000000000000000000000000000000000000000000000000000000
310
00000000000000000000000000000000000000000000000000000000000000000000000000000000000000000000000000000000000000000000000000000000000000000000000000000000000000000000000000000000000000000000000000000000000000000000000000000000000000000000000000000000000000
310
00000000000000000000000000000000000000000000000000000000000000000000000000000000000000000000000000000000000000000000000000000000000000000000000000000000000000000000000000000000000000000000000000000000000000000000000000000000000000000000000000000000000000
310
00000000000000000000000000000000000000000000000000000000000000000000000000000000000000000000000000000000000000000000000000000000000000000000000000000000000000000000000000000000000000000000000000000000000000000000000000000000000000000000000000000000000000
310
00000000000000000000000000000000000000000000000000000000000000000000000000000000000000000000000000000000000000000000000000000000000000000000000000000000000000000000000000000000000000000000000000000000000000000000000000000000000000000000000000000000000000
310
00000000000000000000000000000000000000000000000000000000000000000000000000000000000000000000000000000000000000000000000000000000000000000000000000000000000000000000000000000000000000000000000000000000000000000000000000000000000000000000000000000000000000
310
00000000000000000000000000000000000000000000000000000000000000000000000000000000000000000000000000000000000000000000000000000000000000000000000000000000000000000000000000000000000000000000000000000000000000000000000000000000000000000000000000000000000000
310
00000000000000000000000000000000000000000000000000000000000000000000000000000000000000000000000000000000000000000000000000000000000000000000000000000000000000000000000000000000000000000000000000000000000000000000000000000000000000000000000000000000000000
310
00000000000000000000000000000000000000000000000000000000000000000000000000000000000000000000000000000000000000000000000000000000000000000000000000000000000000000000000000000000000000000000000000000000000000000000000000000000000000000000000000000000000000
310
00000000000000000000000000000000000000000000000000000000000000000000000000000000000000000000000000000000000000000000000000000000000000000000000000000000000000000000000000000000000000000000000000000000000000000000000000000000000000000000000000000000000000
310
00000000000000000000000000000000000000000000000000000000000000000000000000000000000000000000000000000000000000000000000000000000000000000000000000000000000000000000000000000000000000000000000000000000000000000000000000000000000000000000000000000000000000
310
00000000000000000000000000000000000000000000000000000000000000000000000000000000000000000000000000000000000000000000000000000000000000000000000000000000000000000000000000000000000000000000000000000000000000000000000000000000000000000000000000000000000000
310
00000000000000000000000000000000000000000000000000000000000000000000000000000000000000000000000000000000000000000000000000000000000000000000000000000000000000000000000000000000000000000000000000000000000000000000000000000000000000000000000000000000000000
310
00000000000000000000000000000000000000000000000000000000000000000000000000000000000000000000000000000000000000000000000000000000000000000000000000000000000000000000000000000000000000000000000000000000000000000000000000000000000000000000000000000000000000
310
00000000000000000000000000000000000000000000000000000000000000000000000000000000000000000000000000000000000000000000000000000000000000000000000000000000000000000000000000000000000000000000000000000000000000000000000000000000000000000000000000000000000000
310
00000000000000000000000000000000000000000000000000000000000000000000000000000000000000000000000000000000000000000000000000000000000000000000000000000000000000000000000000000000000000000000000000000000000000000000000000000000000000000000000000000000000000
310
00000000000000000000000000000000000000000000000000000000000000000000000000000000000000000000000000000000000000000000000000000000000000000000000000000000000000000000000000000000000000000000000000000000000000000000000000000000000000000000000000000000000000
310
00000000000000000000000000000000000000000000000000000000000000000000000000000000000000000000000000000000000000000000000000000000000000000000000000000000000000000000000000000000000000000000000000000000000000000000000000000000000000000000000000000000000000
310
00000000000000000000000000000000000000000000000000000000000000000000000000000000000000000000000000000000000000000000000000000000000000000000000000000000000000000000000000000000000000000000000000000000000000000000000000000000000000000000000000000000000000
310
00000000000000000000000000000000000000000000000000000000000000000000000000000000000000000000000000000000000000000000000000000000000000000000000000000000000000000000000000000000000000000000000000000000000000000000000000000000000000000000000000000000000000
310
00000000000000000000000000000000000000000000000000000000000000000000000000000000000000000000000000000000000000000000000000000000000000000000000000000000000000000000000000000000000000000000000000000000000000000000000000000000000000000000000000000000000000
310
00000000000000000000000000000000000000000000000000000000000000000000000000000000000000000000000000000000000000000000000000000000000000000000000000000000000000000000000000000000000000000000000000000000000000000000000000000000000000000000000000000000000000
310
00000000000000000000000000000000000000000000000000000000000000000000000000000000000000000000000000000000000000000000000000000000000000000000000000000000000000000000000000000000000000000000000000000000000000000000000000000000000000000000000000000000000000
310
00000000000000000000000000000000000000000000000000000000000000000000000000000000000000000000000000000000000000000000000000000000000000000000000000000000000000000000000000000000000000000000000000000000000000000000000000000000000000000000000000000000000000
310
00000000000000000000000000000000000000000000000000000000000000000000000000000000000000000000000000000000000000000000000000000000000000000000000000000000000000000000000000000000000000000000000000000000000000000000000000000000000000000000000000000000000000
310
00000000000000000000000000000000000000000000000000000000000000000000000000000000000000000000000000000000000000000000000000000000000000000000000000000000000000000000000000000000000000000000000000000000000000000000000000000000000000000000000000000000000000
310
00000000000000000000000000000000000000000000000000000000000000000000000000000000000000000000000000000000000000000000000000000000000000000000000000000000000000000000000000000000000000000000000000000000000000000000000000000000000000000000000000000000000000
310
00000000000000000000000000000000000000000000000000000000000000000000000000000000000000000000000000000000000000000000000000000000000000000000000000000000000000000000000000000000000000000000000000000000000000000000000000000000000000000000000000000000000000
310
00000000000000000000000000000000000000000000000000000000000000000000000000000000000000000000000000000000000000000000000000000000000000000000000000000000000000000000000000000000000000000000000000000000000000000000000000000000000000000000000000000000000000
310
00000000000000000000000000000000000000000000000000000000000000000000000000000000000000000000000000000000000000000000000000000000000000000000000000000000000000000000000000000000000000000000000000000000000000000000000000000000000000000000000000000000000000
310
00000000000000000000000000000000000000000000000000000000000000000000000000000000000000000000000000000000000000000000000000000000000000000000000000000000000000000000000000000000000000000000000000000000000000000000000000000000000000000000000000000000000000
310
00000000000000000000000000000000000000000000000000000000000000000000000000000000000000000000000000000000000000000000000000000000000000000000000000000000000000000000000000000000000000000000000000000000000000000000000000000000000000000000000000000000000000
310
00000000000000000000000000000000000000000000000000000000000000000000000000000000000000000000000000000000000000000000000000000000000000000000000000000000000000000000000000000000000000000000000000000000000000000000000000000000000000000000000000000000000000
310
00000000000000000000000000000000000000000000000000000000000000000000000000000000000000000000000000000000000000000000000000000000000000000000000000000000000000000000000000000000000000000000000000000000000000000000000000000000000000000000000000000000000000
310
00000000000000000000000000000000000000000000000000000000000000000000000000000000000000000000000000000000000000000000000000000000000000000000000000000000000000000000000000000000000000000000000000000000000000000000000000000000000000000000000000000000000000
310
00000000000000000000000000000000000000000000000000000000000000000000000000000000000000000000000000000000000000000000000000000000000000000000000000000000000000000000000000000000000000000000000000000000000000000000000000000000000000000000000000000000000000
310
00000000000000000000000000000000000000000000000000000000000000000000000000000000000000000000000000000000000000000000000000000000000000000000000000000000000000000000000000000000000000000000000000000000000000000000000000000000000000000000000000000000000000
310
00000000000000000000000000000000000000000000000000000000000000000000000000000000000000000000000000000000000000000000000000000000000000000000000000000000000000000000000000000000000000000000000000000000000000000000000000000000000000000000000000000000000000
310
00000000000000000000000000000000000000000000000000000000000000000000000000000000000000000000000000000000000000000000000000000000000000000000000000000000000000000000000000000000000000000000000000000000000000000000000000000000000000000000000000000000000000
310
00000000000000000000000000000000000000000000000000000000000000000000000000000000000000000000000000000000000000000000000000000000000000000000000000000000000000000000000000000000000000000000000000000000000000000000000000000000000000000000000000000000000000
310
00000000000000000000000000000000000000000000000000000000000000000000000000000000000000000000000000000000000000000000000000000000000000000000000000000000000000000000000000000000000000000000000000000000000000000000000000000000000000000000000000000000000000
310
0000000000000000000000000000000000000000000000000000000000000000000000000000000000000000F5F5F5F5F5F5F5F5F5F5F5F5F5F5F5F5F5F5F5F5F5F5F5F5F5F5F5F5F5F5F5F5F5F5F5F5F5F5F5F5F5F5F5F5F5F5F5F5F5F5F5F5F5F5F5F5F5F5F5F5F5F5F5F5F5F5F5F5F5F5F5F5F5F5F5F5F5F5F5F5F5F5F5
310
F5F5F5F5F5F5F5F5F5000000000000000000000000000000000000000000000000F5F5F5F5F5F5F5F5F5F5F5F5F5F5F5F5F5F5F5F5F5F5F5F5F5F5F5F5F5F5F5F5F5F5F5F5F5F5F5F5F5F5F5F5F5F5F5F5F5F5F5F5F5F5F5F5F5F5F5F5F5F5F5F5F5F5F5F5F5F5F5F5F5F5F5F5F5F5F5F5F5F5F5F5F5F5F5F5F5F5F5F50000
310
00000000000000000000000000000000000000000000000000000000000000000000000000000000000000000000F5000000000000000000000000F5F5000000000000F5F5000000000000000000000000000000000000000000000000000000000000000000000000000000000000000000000000F5F50000000000F5F500
310
00000000000000000000F5000000000000000000000000000000000000000000000000F500F5F5F5F50000000000000000F5F5F5F5000000000000000000000000000000000000000000000000000000000000000000000000000000000000000000000000000000000000000000F5F5F5F50000000000000000000000F5F5
310
000000000000000000000000000000000000000000000000000000000000000000000000000000000000000000000000F50000000000000000000000000000F5F5000000000000F5F50000000000000000000000000000000000000000000000000000000000000000000000000000000000000000F5F50000000000F5F500
310
000000000000000000000000F5000000000000000000000000000000000000000000000000F50000000000F5F5F5000000000000000000F5F5F5F500000000000000000000000000000000000000000000000000000000000000000000000000000000000000000000000000F5F5F5F50000000000000000000000F5F5F5F5
310
00F5000000000000000000000000000000000000000000000000000000000000000000000000000000000000000000000000F500000000000000000000000000000000F5F5000000000000F5F500000000000000000000000000000000000000000000000000000000000000000000000000000000F5F50000000000F5F500
310
0000000000000000000000000000F5000000000000000000000000000000000000000000000000F50000000000000000F5F5F5F5000000000000000000F5F5F5F50000000000000000000000000000000000000000000000000000000000000000000000000000000000F5F5F5F50000000000000000000000F5F5F5F50000
310
000000F5000000000000000000000000000000000000000000000000000000000000000000000000000000000000000000000000F5000000000000000000000000000000000000F5F5000000000000F50000000000000000000000000000000000000000000000000000000000000000000000000000F50000000000F5F500
310
00000000000000000000000000000000F5000000000000000000000000000000000000000000000000F5000000000000000000000000F5F5F500000000000000000000F5F5F5F5000000000000000000000000000000000000000000000000000000000000000000F5F5F5F50000000000000000000000F5F5F5F500000000
310
0000000000F5000000000000000000000000000000000000000000000000000000000000000000000000000000000000000000000000F5F5F5000000000000000000000000000000000000F5F50000000000F5F500000000000000000000000000000000000000000000000000000000000000000000F5F500000000F5F500
310
000000000000000000000000000000000000F5000000000000000000000000000000000000000000000000F5000000000000000000000000000000F5F5F5F500000000000000000000F5F5F5F500000000000000000000000000000000000000000000000000F5F5F5F50000000000000000000000F5F5F5F5000000000000
310
00000000000000F5000000000000000000000000000000000000000000000000000000000000000000000000000000000000000000000000F50000F5F5000000000000000000000000000000000000F5F50000000000F5F5000000000000000000000000000000000000000000000000000000000000F5F50000000000F500
310
000000000000000000000000000000000000F5F5F5000000000000000000000000000000000000000000000000F500000000000000000000000000000000000000F5F5F5F500000000000000000000F5F5F5F50000000000000000000000000000000000F5F5F5F5000000000000000000000000F5F5F50000000000000000
310
000000000000000000F5000000000000000000000000000000000000000000000000000000000000000000000000000000000000000000000000F500000000F500000000000000000000000000000000000000F5F50000000000F5F50000000000000000000000000000000000000000000000000000F5F50000000000F5F5
310
000000000000000000000000000000000000F5F50000F5000000000000000000000000000000000000000000000000F50000000000000000000000000000000000000000000000F5F5F50000000000000000000000F5F5F5F5F5F5F5F5F5F5F5F5F5F5F5F5F5000000000000000000000000F5F5F5F5000000000000000000
310
0000000000000000000000F5000000000000000000000000000000000000000000000000000000000000000000000000000000000000000000000000F50000000000F5F500000000000000000000000000000000000000F5F50000000000F5F500000000000000000000000000000000000000000000F5F50000000000F5F5
310
00000000000000000000000000000000000000F500000000F5000000000000000000000000000000000000000000000000F50000000000000000000000000000000000000000000000000000F5F5F5F5000000000000000000F50000F5F5F5000000F5F50000F5000000000000000000F5F5F5F50000000000000000000000
310
00000000000000000000000000F5000000000000000000000000000000000000000000000000000000000000000000000000000000000000000000000000F5F5F50000000000F5F500000000000000000000000000000000000000F5F5000000F500F5F5F500000000000000000000000000000000F5F5F500F5000000F5F5
310
00000000000000000000000000000000000000F5F50000000000F5000000000000000000000000000000000000000000000000F5000000000000000000000000000000000000000000000000000000000000F5F5F5000000000000F50000F5F5F5000000F5F50000F50000000000F5F5F5F500000000000000000000000000
310
000000000000000000000000000000F5000000000000000000000000000000000000000000000000000000000000000000000000000000000000000000000000F50000F5F50000000000F5F500000000000000000000000000000000000000F5F5F50000000000F5F5F5000000000000000000F5F5F5F50000000000F5F5F5
310
00000000000000000000000000000000000000F5F500000000000000F5000000000000000000000000000000000000000000000000F5000000000000000000000000000000000000000000000000000000000000000000F5F5F5F500F5000000F5F5F5F50000F5F50000F500F5F5F5F5000000000000000000000000000000
310
0000000000000000000000000000000000F5000000000000000000000000000000000000000000000000000000000000000000000000000000000000000000000000F500000000F5000000000000F50000000000000000000000000000000000000000F5F500000000000000F5F5F5000000F5F5F50000000000000000F5F5
310
0000000000000000000000000000000000000000F500000000000000F5F5F5000000000000000000000000000000000000000000000000F500000000000000000000000000000000000000000000000000000000000000000000000000F5F5F5F5F5F5F5F5F5F5F5F5F5F5F5F5F50000000000000000000000000000000000
310
00000000000000000000000000000000000000F5000000000000000000000000000000000000000000000000000000000000000000000000000000000000000000000000F50000000000F5F50000000000F5F50000000000000000000000000000000000000000F5F5F500000000F5F5F5F5F5F5F500F500000000F5F5F5F5
310
0000000000000000000000000000000000000000F5F5000000000000F5F50000F5000000000000000000000000000000000000000000000000F5F50000000000000000000000000000000000000000000000000000000000000000000000000000000000000000000000000000000000000000000000000000000000000000
310
0000000000000000000000000000000000000000F5F5000000000000000000000000000000000000000000000000000000000000000000000000000000000000000000000000F500000000000000F5F50000000000F5F5000000000000000000000000000000000000000000F5F5F5F5F5F5F5F50000F5F5F500F5F5F50000
310
0000000000000000000000000000000000000000F5F5000000000000F5F500000000F5000000000000000000000000000000000000000000000000F500F5F5F5F50000000000000000000000000000000000000000000000000000000000000000000000000000000000000000000000000000000000000000000000000000
310
000000000000000000000000000000000000F5F5F5F500F5000000000000000000000000000000000000000000000000000000000000000000000000000000000000000000000000F5000000000000000000F5000000000000F5000000000000000000000000000000000000000000000000F5F5F5F50000F5F5F5F5000000
310
0000000000000000000000000000000000000000F5F5000000000000F5F5000000000000F5000000000000000000000000000000000000000000000000F50000000000F5F5F5F50000000000000000000000000000000000000000000000000000000000000000000000000000000000000000000000000000000000000000
310
00000000000000000000000000000000F5F5F5F50000000000F5000000000000000000000000000000000000000000000000000000000000000000000000000000000000000000000000F500000000000000000000F5F50000000000F5F500000000000000000000000000000000000000000000000000F5F5F50000000000
310
000000000000000000000000000000000000000000F500000000000000F50000000000000000F5000000000000000000000000000000000000000000000000F5F50000000000000000F5F5F5000000000000000000000000000000000000000000000000000000000000000000000000000000000000000000000000000000
310
000000000000000000000000000000F5F5F5000000000000000000F5000000000000000000000000000000000000000000000000000000000000000000000000000000000000000000000000F5000000000000000000000000F5F50000000000F5F50000000000000000000000000000000000000000000000000000000000
310
000000000000000000000000000000000000000000F5F5000000000000F5F5000000000000000000F5000000000000000000000000000000000000000000000000F500F5F5F5F500000000000000F5F5F5F5000000000000000000000000000000000000000000000000000000000000000000000000000000000000000000
310
00000000000000000000000000F5F5F5F50000000000000000000000F5F5000000000000000000000000000000000000000000000000000000000000000000000000000000000000000000000000F50000000000000000000000000000F5F50000000000F5F500000000000000000000000000000000000000000000000000
310
000000000000000000000000000000000000000000F5F5000000000000F5F50000000000000000000000F5000000000000000000000000000000000000000000000000F50000000000F5F5F50000000000000000F5F5F5F5000000000000000000000000000000000000000000000000000000000000000000000000000000
310
000000000000000000000000F5F5F50000000000000000000000F5F5F5F500F5000000000000000000000000000000000000000000000000000000000000000000000000000000000000000000000000F5F5F50000000000000000000000000000F5000000000000F500000000000000000000000000000000000000000000
310
00000000000000000000000000000000000000000000F5000000000000F5F500000000000000000000000000F5000000000000000000000000000000000000000000000000F50000000000000000F5F5F5F50000000000000000F5F5F5F5000000000000000000000000000000000000000000000000000000000000000000
310
00000000000000000000F5F5F5F500000000000000000000F5F5F5F50000000000F5000000000000000000000000000000000000000000000000000000000000000000000000000000000000000000000000F50000F5F500000000000000000000000000F5F50000000000F5F5000000000000000000000000000000000000
310
00000000000000000000000000000000000000000000F5F5000000000000F5000000000000000000000000000000F5000000000000000000000000000000000000000000000000F5000000000000000000000000F5F5F5F50000000000000000F5F5F500000000000000000000000000000000000000000000000000000000
310
0000000000000000F5F5F5F500000000000000000000F5F5F5F5000000000000000000F5000000000000000000000000000000000000000000000000000000000000000000000000000000000000000000000000F500000000F50000000000000000000000000000F5F50000000000F5F50000000000000000000000000000
310
00000000000000000000000000000000000000000000F5F5000000000000F5F50000000000000000000000000000F5F5F5000000000000000000000000000000000000000000000000F500000000000000000000000000000000F5F5F50000000000000000F5F5F5F500000000000000000000000000000000000000000000
310
00000000000000F5F5F500000000000000000000F5F5F5F500000000000000000000000000F5000000000000000000000000000000000000000000000000000000000000000000000000000000000000000000000000F50000000000F5F50000000000000000000000000000F5000000000000F5F500000000000000000000
310
00000000000000000000000000000000000000000000F5F5000000000000F5F50000000000000000000000000000F5F50000F5000000000000000000000000000000000000000000000000F500000000000000000000000000000000000000F5F5F5F50000000000000000F5F5F5F500000000000000000000000000000000
310
0000000000F5F5F5F5000000000000000000F5F5F5F50000000000000000000000000000000000F5000000000000000000000000000000000000000000000000000000000000000000000000000000000000000000000000F500000000000000F5F500000000000000000000000000F5F5000000F50000F5F5F50000000000
310
000000000000000000000000000000000000000000F5F5F50000F5000000F5F50000000000000000000000000000F5F500000000F5000000000000000000000000000000000000000000000000F50000000000000000000000000000000000000000000000F5F5F5000000000000000000F5F5F5F5F5F5F5F5F5F5F5F5F5F5
310
F5F5F5F5F5F5F5000000000000000000F5F5F5F5000000000000000000000000000000000000000000F5000000000000000000000000000000000000000000000000000000000000000000000000000000000000000000000000F5F5F500000000000000F50000000000000000000000000000F5F500F50000000000F5F500
310
0000000000000000000000000000000000000000F5F5F50000000000F500F5F50000000000000000000000000000F5F5000000000000F5000000000000000000000000000000000000000000000000F50000000000000000000000000000000000000000000000000000F5F5F5F5000000000000F500000000000000000000
310
00000000000000F5000000000000F5F5F5F500000000000000000000000000000000000000000000000000F5000000000000000000000000000000000000000000000000000000000000000000000000000000000000000000000000F50000F5F5000000000000F5F50000000000000000000000000000F5F5000000000000
310
00F5F5F5000000000000000000000000000000F5F5F50000000000000000F5F5000000000000000000000000000000F5000000000000F5F5F5000000000000000000000000000000000000000000000000F5000000000000000000000000000000000000000000000000000000000000F5F5F5F500F500000000F5F5F5F500
310
0000F5F5000000000000F500F5F5F5F50000000000000000000000000000000000000000000000000000000000F5000000000000000000000000000000000000000000000000000000000000000000000000000000000000000000000000F500000000F5F5000000000000F5F50000000000000000000000000000F5F5F500
310
000000000000F5F5F5F5F5F5F5F5F5F5F5F5F5F5F50000000000000000F5F5F5000000000000000000000000000000F5F50000000000F5F50000F5000000000000000000000000000000000000000000000000F500000000000000000000000000000000000000000000000000000000000000000000F5F5F5F5F5F5F5F5F5
310
F5F5F5F5F5F5F5F5F5F5F5F5F5F5000000000000000000000000000000000000000000000000000000000000000000F5000000000000000000000000000000000000000000000000000000000000000000000000000000000000000000000000F5000000000000F5F5000000000000F5F50000000000000000000000000000
310
00F5F5F5F5000000000000F500F5000000F500F500000000000000F5F5F5F500000000000000000000000000000000F5F50000000000F5F500000000F5000000000000000000000000000000000000000000000000F5F500000000000000000000000000000000000000000000000000000000000000000000000000000000
310
F500F5F50000F5F500000000000000000000000000000000000000000000000000000000000000000000000000000000F5F5000000000000000000000000000000000000000000000000000000000000000000000000000000000000000000000000F50000000000000000F500000000000000F50000000000000000000000
310
00000000000000F5F5F5000000F5F5F5F50000F5F5F500000000F5F5F5000000000000000000000000000000000000F5F5000000000000F5000000000000F5000000000000000000000000000000000000000000000000F500F5F5F5F500000000000000000000000000000000000000000000000000000000000000000000
310
00000000000000000000000000000000000000000000000000000000000000000000000000000000000000000000F5F5F5F500F5000000000000000000000000000000000000000000000000000000000000000000000000000000000000000000000000F5000000000000000000F5F5000000000000F5F500000000000000
310
000000000000000000000000F5F5F5F5F5F5F5F5F5F5F5F5F5F5F5F50000000000000000000000000000000000000000F5000000000000F5F500000000000000F5000000000000000000000000000000000000000000000000F50000000000F5F5F50000000000000000000000000000000000000000000000000000000000
310
000000000000000000000000000000000000000000000000000000000000000000000000000000000000000000F5F5F50000000000F5000000000000000000000000000000000000000000000000000000000000000000000000000000000000000000000000F50000000000000000000000F5F5000000000000F5F5000000
310
000000000000000000000000000000000000000000000000000000000000000000000000000000000000000000000000F5F50000000000F5F5000000000000000000F5000000000000000000000000000000000000000000000000F50000000000000000F5F5F5F50000000000000000000000000000000000000000000000
310
00000000000000000000000000000000000000000000000000000000000000000000000000000000000000F5F5F5F50000000000000000F5000000000000000000000000000000000000000000000000000000000000000000000000000000000000000000000000F500000000000000000000000000F5F5000000000000F5
310
000000000000000000000000000000000000000000000000000000000000000000000000000000000000000000000000F5F50000000000F5F50000000000000000000000F5000000000000000000000000000000000000000000000000F5F50000000000000000000000F5F5F5000000000000000000000000000000000000
310
000000000000000000000000000000000000000000000000000000000000000000000000000000000000F5F5F50000000000000000000000F5F5000000000000000000000000000000000000000000000000000000000000000000000000000000000000000000000000F5000000000000000000000000000000F500000000
310
0000F5F50000000000000000000000000000000000000000000000000000000000000000000000000000000000000000F5F50000000000F5F500000000000000000000000000F5000000000000000000000000000000000000000000000000F500F5F5F5F500000000000000000000F5F5F5F5000000000000000000000000
310
00000000000000000000000000000000000000000000000000000000000000000000000000000000F5F5F5F500000000000000000000F5F5F5F500F5000000000000000000000000000000000000000000000000000000000000000000000000000000000000000000000000F500000000000000000000000000000000F5F5
310
000000000000F5F500000000000000000000000000000000000000000000000000000000000000000000000000000000F5F5000000000000F5000000000000000000000000000000F5000000000000000000000000000000000000000000000000F50000000000F5F5F5F500000000000000000000F5F5F500000000000000
310
000000000000000000000000000000000000000000000000000000000000000000000000000000F5F5F500000000000000000000F5F5F5F50000000000F5000000000000000000000000000000000000000000000000000000000000000000000000000000000000000000000000F500000000000000000000000000000000
310
0000F5F5000000000000F5F5000000000000000000000000000000000000000000000000000000000000000000000000F5F5000000000000F5F500000000000000000000000000000000F5000000000000000000000000000000000000000000000000F5000000000000000000F5F5F5F5000000000000000000F5F5F5F500
310
00000000000000000000000000000000000000000000000000000000000000000000000000F5F5F5F5000000000000000000F5F5F5F5000000000000000000F5000000000000000000000000000000000000000000000000000000000000000000000000000000000000000000000000F5F5F5000000000000000000000000
310
000000000000F5F5000000F50000F5F5F5000000000000000000000000000000000000000000000000000000000000F5F5F50000F5000000F5F5000000000000000000000000000000000000F5000000000000000000000000000000000000000000000000F500000000000000000000000000F5F5F5F50000000000000000
310
00F5F5F50000000000000000000000000000000000000000000000000000000000000000F5F5F5000000000000000000F5F5F5F500000000000000000000000000F5000000000000000000000000000000000000000000000000000000000000000000000000000000000000000000000000F50000F5F50000000000000000
310
00000000000000000000F5F500F50000000000F5F5F5F500000000000000000000000000000000000000000000F5F5F5F50000000000F500F5F5000000000000000000000000000000000000F5F5F5000000000000000000000000000000000000000000000000F50000000000000000000000000000000000F5F5F5000000
310
000000000000F5F5F5F5000000000000000000000000000000000000000000000000F5F5F5F5000000000000000000F5F5F50000000000000000000000000000000000F5000000000000000000000000000000000000000000000000000000000000000000000000000000000000000000000000F500000000F5F500000000
310
0000000000000000000000000000F5F5000000000000000000F5F5F500000000000000000000000000000000F5F5F5000000000000000000F5F5000000000000000000000000000000000000F5F50000F5000000000000000000000000000000000000000000000000F50000000000000000000000000000000000000000F5
310
F5F5F5000000000000000000F5F5F5F5F5F5F5F5F5F5F5F5F5F5F5F5F5F5F5F5F5F5F5F5000000000000000000F5F5F5F50000000000000000000000000000000000000000F5000000000000000000000000000000000000000000000000000000000000000000000000000000000000000000000000F5000000000000F5F5
310
000000000000000000000000000000000000F5F5F5000000000000000000F5F5F5F5F5F5F5F5F5F5F5F5F5F5F5F5000000000000000000F5F5F5000000000000000000000000000000000000F5F500000000F5000000000000000000000000000000000000000000000000F500000000000000000000000000000000000000
310
0000000000F5F5F5F5000000000000F50000000000F500F500000000F5F5000000000000F5000000000000F5F5F5F5000000000000000000000000000000000000000000000000F5000000000000000000000000000000000000000000000000000000000000000000000000000000000000000000000000F5F5F500000000
310
0000F5F500000000000000000000000000000000000000F5F5F50000000000000000000000000000000000000000000000000000000000F5F500000000000000000000000000000000000000F5F5000000000000F5000000000000000000000000000000000000000000000000F50000000000000000000000000000000000
310
0000000000000000000000F5F5F5F500F5000000000000F5F5F5F5000000F5F500000000000000F500F5F5F5F500000000000000000000000000000000000000000000000000000000F5000000000000000000000000000000000000000000000000000000000000000000000000000000000000000000000000F50000F5F5
310
000000000000F5F50000000000000000000000000000000000000000F5F5000000000000F5F5F5F5000000F5F5000000000000000000F5F5F500000000000000000000000000000000000000F5F5000000000000F5F5F5000000000000000000000000000000000000000000000000F5000000000000000000000000000000
310
0000000000000000000000000000000000F5F5F5F5F5F5F5F5F5F5F5F5F5F5F5F5F5F5F5F5F5F5F5F5F5F50000000000000000000000000000000000000000000000000000000000000000F5000000000000000000000000000000000000000000000000000000000000000000000000000000000000000000000000F50000
310
0000F5F5000000000000F5F50000000000000000000000000000000000000000F5F5F5000000F5F5F5F5F50000F5F5000000000000F5F5F50000000000000000000000000000000000000000F5F5000000000000F5F50000F5000000000000000000000000000000000000000000000000F500000000000000000000000000
310
0000000000000000000000000000000000000000000000000000000000000000000000000000000000000000000000000000000000000000000000000000000000000000000000000000000000F5000000000000000000000000000000000000000000000000000000000000000000000000000000000000000000000000F5
310
000000000000F5F5000000000000F5F5000000000000000000000000000000000000000000F5F5F5F5F5F5F5F5F5F5F5F5F5F5F5F5F5F5000000000000000000000000000000000000000000F5F5000000000000F5F500000000F5000000000000000000000000000000000000000000000000F5F500000000000000000000
310
000000000000000000000000000000000000000000000000000000000000000000000000000000000000000000000000000000000000000000000000000000000000000000000000000000000000F5F50000000000000000000000000000000000000000000000000000000000000000000000000000000000000000000000
310
00F50000000000000000F5F5000000000000F5F50000000000000000000000000000000000000000000000000000000000000000000000000000000000000000000000000000000000000000F5F5000000000000F5F5000000000000F5000000000000000000000000000000000000000000000000F500F5F5F5F500000000
310
00000000000000000000000000000000000000000000000000000000000000000000000000000000000000000000000000000000000000000000000000000000000000000000000000000000F5F5F5F500F5000000000000000000000000000000000000000000000000000000000000000000000000000000000000000000
310
000000F500000000000000000000F5F5000000000000F5F500000000000000000000000000000000000000000000000000000000000000000000000000000000000000000000000000000000F5F5000000000000F5F50000000000000000F5000000000000000000000000000000000000000000000000F50000000000F5F5
310
F5F5000000000000000000000000000000000000000000000000000000000000000000000000000000000000000000000000000000000000000000000000000000000000000000000000F5F5F5F50000000000F500000000000000000000000000000000000000000000000000000000000000000000000000000000000000
310
0000000000F5000000000000000000000000F5F5000000F50000F5F5000000000000000000000000000000000000000000000000000000000000000000000000000000000000000000000000F5F50000F5000000F5F500000000000000000000F5000000000000000000000000000000000000000000000000F5F500000000
310
00000000F5F5F5F500000000000000000000000000000000000000000000000000000000000000000000000000000000000000000000000000000000000000000000000000000000F5F5F5F5000000000000000000F50000000000000000000000000000000000000000000000000000000000000000000000000000000000
310
00000000000000F50000000000000000000000000000F5F500F500000000F5F5F5000000000000000000000000000000000000000000000000000000000000000000000000000000000000F5F5F500000000F500F5F5000000000000000000000000F5000000000000000000000000000000000000000000000000F500F5F5
310
F5F50000000000000000F5F5F5F50000000000000000000000000000000000000000000000000000000000000000000000000000000000000000000000000000000000000000F5F5F5F5000000000000000000000000F5F5000000000000000000000000000000000000000000000000000000000000000000000000000000
310
000000000000000000F500000000000000000000000000000000F5F500000000000000F5F5F500000000000000000000000000000000000000000000000000000000000000000000000000F5F500000000000000F5F50000000000000000000000000000F5000000000000000000000000000000000000000000000000F500
310
00000000F5F5F5000000000000000000F5F5F5F5000000000000000000000000000000000000000000000000000000000000000000000000000000000000000000000000F5F5F5F5000000000000000000000000F5F5F5F500F500000000000000000000000000000000000000000000000000000000000000000000000000
310
0000000000000000000000F5000000000000000000000000000000000000F5F5F500000000000000F5F50000000000000000000000000000000000000000000000000000000000000000F5F5F5000000000000F5F5F500000000000000000000000000000000F5000000000000000000000000000000000000000000000000
310
F50000000000000000F5F5F5F5000000000000000000F5F5F5F500000000000000000000000000000000000000000000000000000000000000000000000000000000F5F5F5F5000000000000000000000000F5F5F5F50000000000F50000000000000000000000000000000000000000000000000000000000000000000000
310
00000000000000000000000000F5000000000000000000000000000000000000000000F5F500000000000000F5F5F50000000000000000000000000000000000000000000000000000F5F5F500000000000000F5F500000000000000000000000000000000000000F500000000000000000000000000000000000000000000
310
0000F5000000000000000000000000F5F5F500000000000000000000F5F5F5F50000000000000000000000000000000000000000000000000000000000000000F5F5F5F5000000000000000000000000F5F5F5F5000000000000000000F5000000000000000000000000000000000000000000000000000000000000000000
310
000000000000000000000000000000F50000000000000000000000000000000000000000000000F5F5F500000000000000F5F500000000000000000000000000000000000000000000F5F500000000000000F5F5F5000000000000000000000000000000000000000000F50000000000000000000000000000000000000000
310
00000000F5000000000000000000000000000000F5F5F50000000000000000000000F5F5F5F5F5F5000000000000000000000000000000000000000000F5F5F5F5F500000000000000000000000000F5F5F500000000000000000000000000F500000000000000000000000000000000000000000000000000000000000000
310
0000000000000000000000000000000000F50000000000000000000000000000000000000000000000000000F5F5F5000000000000F5F5F5F5F5F5F5F5F5F5F5F5F5F5F5F5F5F5F5F5F5F5000000000000F5F5F5000000000000000000000000000000000000000000000000F5000000000000000000000000000000000000
310
000000000000F5000000000000000000000000000000000000F5F5F5F5000000000000000000F5000000F5F5F5F5F5F5F500000000000000F5F5F5F5F5F5F5000000F500000000000000000000F5F5F5F500000000000000000000000000000000F50000000000000000000000000000000000000000000000000000000000
310
00000000000000000000000000000000000000F50000000000000000000000000000000000000000000000000000000000F5F500000000000000000000F5F5F5F5F5000000F5F500000000000000000000F5F5000000000000000000000000000000000000000000000000000000F500000000000000000000000000000000
310
0000000000000000F500000000000000000000000000000000000000000000F5F5F5000000000000F5000000000000000000F5F5F5F5F5F5F5F500F5000000000000000000F50000000000F5F5F5F50000000000000000000000000000000000000000F5000000000000000000000000000000000000000000000000000000
310
000000000000000000000000000000000000000000F500000000000000000000000000000000000000000000000000000000000000F5F5F500000000000000F5F5F5F5F5F50000F5F500000000000000F5F5F50000000000000000000000000000000000000000000000000000000000F50000000000000000000000000000
310
00000000000000000000F500000000000000000000000000000000000000000000000000F5F5F5F500F500000000000000000000F5F5F5F5000000F5F500000000000000000000F500F5F5F5F5000000000000000000000000000000000000000000000000F500000000000000000000000000000000000000000000000000
310
0000000000000000000000000000000000000000000000F500000000000000000000000000000000000000000000000000000000000000000000F5F5F5F5F5F5F5F5F5F5F5F5F5F5F5F5F5F5F5F5F5F5F5F50000000000000000000000000000000000000000000000000000000000000000F5000000000000000000000000
310
000000000000000000000000F50000000000000000000000000000000000000000000000000000000000F5F5F5F5F500000000000000F5F5F5F5F50000F5F5F5000000000000F5F5F5F5F500000000000000000000000000000000000000000000000000000000F50000000000000000000000000000000000000000000000
310
00000000000000000000000000000000000000000000000000F5000000000000000000000000000000000000000000000000000000000000000000000000000000000000000000000000000000000000000000000000000000000000000000000000000000000000000000000000000000000000F500000000000000000000
310
0000000000000000000000000000F500000000000000000000000000000000000000000000000000000000000000000000F5F5F5F5F5F5F5F500000000000000F5F5F5F5F5F5F5F5000000000000000000000000000000000000000000000000000000000000000000F5000000000000000000000000000000000000000000
310
000000000000000000000000000000000000000000000000000000F5000000000000000000000000000000000000000000000000000000000000000000000000000000000000000000000000000000000000000000000000000000000000000000000000000000000000000000000000000000000000F50000000000000000
310
00000000000000000000000000000000F5000000000000000000000000000000000000000000000000000000000000000000000000000000000000F5F5F5F5F5F5F50000000000000000000000000000000000000000000000000000000000000000000000000000000000F500000000000000000000000000000000000000
310
0000000000000000000000000000000000000000000000000000000000F5F5F5F5F5F5F5000000F5F5F5F5F50000F5F5F5F5F5000000000000000000000000000000000000000000000000000000000000000000000000000000000000000000000000000000000000000000000000000000000000000000F5000000000000
310
000000000000000000000000000000000000F5F5F5F5F5F5F5000000F5F5F5F5F50000F5F5F5F5F5000000000000000000000000000000000000000000000000000000000000000000000000000000000000000000000000000000000000000000000000000000000000000000F50000000000000000000000000000000000
310
00000000000000000000000000000000000000000000000000000000000000F500F5F5F5F5F5F50000F500F5F5F5F5F5F5F5F5F5F5000000000000000000000000000000000000000000000000000000000000000000000000000000000000000000000000000000000000000000000000000000000000000000F500000000
310
0000000000000000000000000000000000000000F500F5F5F5F5F5F50000F500F5F5F5F5F5F5F5F5F5F5000000000000000000000000000000000000000000000000000000000000000000000000000000000000000000000000000000000000000000000000000000000000000000F5000000000000000000000000000000
310
000000000000000000000000000000000000000000000000000000000000000000F5F5F5F5F5F5F5F50000F5F500000000000000000000000000000000000000000000000000000000000000000000000000000000000000000000000000000000000000000000000000000000000000000000000000000000000000F50000
310
00000000000000000000000000000000000000000000F5F5F5F5F5F5F5F50000F5F500000000000000000000000000000000000000000000000000000000000000000000000000000000000000000000000000000000000000000000000000000000000000000000000000000000000000F500000000000000000000000000
310
0000000000000000000000000000000000000000000000000000000000000000000000F5F5F5F5F5F5F5F5F5F5F5F5F5F5F5F5F5F5F5F5F5F5F5F5F5F5F5F5F5F5F5F5F5F5F5F5F5F5F5F5F5F5F5F5F5F5F5F5F5F5F5F5F5F5F5F5F5F5F5F5F5F5F5F5F5F5F5F5F5F5F5F5F5F5F5F5F5F5F5F5F5F5F5F5F5F5F5F5F5F5F5F5
310
000000000000000000000000000000000000000000000000F5F5F5F5F5F5F5F5F5F5F5F5F5F5F5F5F5F5F5F5F5F5F5F5F5F5F5F5F5F5F5F5F5F5F5F5F5F5F5F5F5F5F5F5F5F5F5F5F5F5F5F5F5F5F5F5F5F5F5F5F5F5F5F5F5F5F5F5F5F5F5F5F5F5F5F5F5F5F5F5F5F5F5F5F5F5F5F5F5F5F5F50000000000000000000000
310
00000000000000000000000000000000000000000000000000000000000000000000000000000000000000000000000000000000000000000000000000000000000000000000000000000000000000000000000000000000000000000000000000000000000000000000000000000000000000000000000000000000000000
310
00000000000000000000000000000000000000000000000000000000000000000000000000000000000000000000000000000000000000000000000000000000000000000000000000000000000000000000000000000000000000000000000000000000000000000000000000000000000000000000000000000000000000
310
00000000000000000000000000000000000000000000000000000000000000000000000000000000000000000000000000000000000000000000000000000000000000000000000000000000000000000000000000000000000000000000000000000000000000000000000000000000000000000000000000000000000000
310
00000000000000000000000000000000000000000000000000000000000000000000000000000000000000000000000000000000000000000000000000000000000000000000000000000000000000000000000000000000000000000000000000000000000000000000000000000000000000000000000000000000000000
310
00000000000000000000000000000000000000000000000000000000000000000000000000000000000000000000000000000000000000000000000000000000000000000000000000000000000000000000000000000000000000000000000000000000000000000000000000000000000000000000000000000000000000
310
00000000000000000000000000000000000000000000000000000000000000000000000000000000000000000000000000000000000000000000000000000000000000000000000000000000000000000000000000000000000000000000000000000000000000000000000000000000000000000000000000000000000000
310
00000000000000000000000000000000000000000000000000000000000000000000000000000000000000000000000000000000000000000000000000000000000000000000000000000000000000000000000000000000000000000000000000000000000000000000000000000000000000000000000000000000000000
310
00000000000000000000000000000000000000000000000000000000000000000000000000000000000000000000000000000000000000000000000000000000000000000000000000000000000000000000000000000000000000000000000000000000000000000000000000000000000000000000000000000000000000
310
00000000000000000000000000000000000000000000000000000000000000000000000000000000000000000000000000000000000000000000000000000000000000000000000000000000000000000000000000000000000000000000000000000000000000000000000000000000000000000000000000000000000000
310
00000000000000000000000000000000000000000000000000000000000000000000000000000000000000000000000000000000000000000000000000000000000000000000000000000000000000000000000000000000000000000000000000000000000000000000000000000000000000000000000000000000000000
310
00000000000000000000000000000000000000000000000000000000000000000000000000000000000000000000000000000000000000000000000000000000000000000000000000000000000000000000000000000000000000000000000000000000000000000000000000000000000000000000000000000000000000
310
00000000000000000000000000000000000000000000000000000000000000000000000000000000000000000000000000000000000000000000000000000000000000000000000000000000000000000000000000000000000000000000000000000000000000000000000000000000000000000000000000000000000000
310
00000000000000000000000000000000000000000000000000000000000000000000000000000000000000000000000000000000000000000000000000000000000000000000000000000000000000000000000000000000000000000000000000000000000000000000000000000000000000000000000000000000000000
310
00000000000000000000000000000000000000000000000000000000000000000000000000000000000000000000000000000000000000000000000000000000000000000000000000000000000000000000000000000000000000000000000000000000000000000000000000000000000000000000000000000000000000
310
00000000000000000000000000000000000000000000000000000000000000000000000000000000000000000000000000000000000000000000000000000000000000000000000000000000000000000000000000000000000000000000000000000000000000000000000000000000000000000000000000000000000000
310
00000000000000000000000000000000000000000000000000000000000000000000000000000000000000000000000000000000000000000000000000000000000000000000000000000000000000000000000000000000000000000000000000000000000000000000000000000000000000000000000000000000000000
310
00000000000000000000000000000000000000000000000000000000000000000000000000000000000000000000000000000000000000000000000000000000000000000000000000000000000000000000000000000000000000000000000000000000000000000000000000000000000000000000000000000000000000
310
00000000000000000000000000000000000000000000000000000000000000000000000000000000000000000000000000000000000000000000000000000000000000000000000000000000000000000000000000000000000000000000000000000000000000000000000000000000000000000000000000000000000000
310
00000000000000000000000000000000000000000000000000000000000000000000000000000000000000000000000000000000000000000000000000000000000000000000000000000000000000000000000000000000000000000000000000000000000000000000000000000000000000000000000000000000000000
310
00000000000000000000000000000000000000000000000000000000000000000000000000000000000000000000000000000000000000000000000000000000000000000000000000000000000000000000000000000000000000000000000000000000000000000000000000000000000000000000000000000000000000
310
00000000000000000000000000000000000000000000000000000000000000000000000000000000000000000000000000000000000000000000000000000000000000000000000000000000000000000000000000000000000000000000000000000000000000000000000000000000000000000000000000000000000000
310
00000000000000000000000000000000000000000000000000000000000000000000000000000000000000000000000000000000000000000000000000000000000000000000000000000000000000000000000000000000000000000000000000000000000000000000000000000000000000000000000000000000000000
310
00000000000000000000000000000000000000000000000000000000000000000000000000000000000000000000000000000000000000000000000000000000000000000000000000000000000000000000000000000000000000000000000000000000000000000000000000000000000000000000000000000000000000
310
00000000000000000000000000000000000000000000000000000000000000000000000000000000000000000000000000000000000000000000000000000000000000000000000000000000000000000000000000000000000000000000000000000000000000000000000000000000000000000000000000000000000000
310
00000000000000000000000000000000000000000000000000000000000000000000000000000000000000000000000000000000000000000000000000000000000000000000000000000000000000000000000000000000000000000000000000000000000000000000000000000000000000000000000000000000000000
310
00000000000000000000000000000000000000000000000000000000000000000000000000000000000000000000000000000000000000000000000000F5F500000000000000F5F50000000000000000000000000000000000000000000000000000000000000000000000000000000000000000000000000000F5F5000000
310
0000000000F5F5000000000000000000000000000000
  0
XRECORD
  5
36F1
102
{ACAD_REACTORS
330
36F0
102
}
330
36F0
100
AcDbXrecord
280
     1
102
MATERIAL
148
0.0
149
0.0
149
0.0
 93
        0
 94
      127
282
     0
 72
     0
 77
     0
171
     0
175
     0
179
     0
273
     0
  0
XRECORD
  5
36EF
102
{ACAD_REACTORS
330
36EE
102
}
330
36EE
100
AcDbXrecord
280
     1
102
MATERIAL
148
0.0
149
0.0
149
0.0
 93
        0
 94
      127
282
     0
 72
     0
 77
     0
171
     0
175
     0
179
     0
273
     0
  0
XRECORD
  5
36F3
102
{ACAD_REACTORS
330
36F2
102
}
330
36F2
100
AcDbXrecord
280
     1
102
MATERIAL
148
0.0
149
0.0
149
0.0
 93
        0
 94
      127
282
     0
 72
     0
 77
     0
171
     0
175
     0
179
     0
273
     0
  0
CELLSTYLEMAP
  5
36E4
102
{ACAD_REACTORS
330
439
102
}
330
439
100
AcDbCellStyleMap
 90
        3
300
CELLSTYLE
  1
TABLEFORMAT_BEGIN
 90
        5
170
     1
 91
        0
 92
    32768
 62
   257
 93
        1
300
CONTENTFORMAT
  1
CONTENTFORMAT_BEGIN
 90
        0
 91
        0
 92
      512
 93
        0
300

 40
0.0
140
1.0
 94
        5
 62
     0
340
11
144
0.25
309
CONTENTFORMAT_END
171
     1
301
MARGIN
  1
CELLMARGIN_BEGIN
 40
0.06
 40
0.06
 40
0.06
 40
0.06
 40
0.18
 40
0.18
309
CELLMARGIN_END
 94
        6
 95
        1
302
GRIDFORMAT
  1
GRIDFORMAT_BEGIN
 90
        0
 91
        1
 62
     0
 92
       -2
340
0
 93
        0
 40
0.045
309
GRIDFORMAT_END
 95
        2
302
GRIDFORMAT
  1
GRIDFORMAT_BEGIN
 90
        0
 91
        1
 62
     0
 92
       -2
340
0
 93
        0
 40
0.045
309
GRIDFORMAT_END
 95
        4
302
GRIDFORMAT
  1
GRIDFORMAT_BEGIN
 90
        0
 91
        1
 62
     0
 92
       -2
340
0
 93
        0
 40
0.045
309
GRIDFORMAT_END
 95
        8
302
GRIDFORMAT
  1
GRIDFORMAT_BEGIN
 90
        0
 91
        1
 62
     0
 92
       -2
340
0
 93
        0
 40
0.045
309
GRIDFORMAT_END
 95
       16
302
GRIDFORMAT
  1
GRIDFORMAT_BEGIN
 90
        0
 91
        1
 62
     0
 92
       -2
340
0
 93
        0
 40
0.045
309
GRIDFORMAT_END
 95
       32
302
GRIDFORMAT
  1
GRIDFORMAT_BEGIN
 90
        0
 91
        1
 62
     0
 92
       -2
340
0
 93
        0
 40
0.045
309
GRIDFORMAT_END
309
TABLEFORMAT_END
  1
CELLSTYLE_BEGIN
 90
        1
 91
        1
300
_TITLE
309
CELLSTYLE_END
300
CELLSTYLE
  1
TABLEFORMAT_BEGIN
 90
        5
170
     1
 91
        0
 92
        0
 62
   257
 93
        1
300
CONTENTFORMAT
  1
CONTENTFORMAT_BEGIN
 90
        0
 91
        0
 92
      512
 93
        0
300

 40
0.0
140
1.0
 94
        5
 62
     0
340
11
144
0.18
309
CONTENTFORMAT_END
171
     1
301
MARGIN
  1
CELLMARGIN_BEGIN
 40
0.06
 40
0.06
 40
0.06
 40
0.06
 40
0.18
 40
0.18
309
CELLMARGIN_END
 94
        6
 95
        1
302
GRIDFORMAT
  1
GRIDFORMAT_BEGIN
 90
        0
 91
        1
 62
     0
 92
       -2
340
0
 93
        0
 40
0.045
309
GRIDFORMAT_END
 95
        2
302
GRIDFORMAT
  1
GRIDFORMAT_BEGIN
 90
        0
 91
        1
 62
     0
 92
       -2
340
0
 93
        0
 40
0.045
309
GRIDFORMAT_END
 95
        4
302
GRIDFORMAT
  1
GRIDFORMAT_BEGIN
 90
        0
 91
        1
 62
     0
 92
       -2
340
0
 93
        0
 40
0.045
309
GRIDFORMAT_END
 95
        8
302
GRIDFORMAT
  1
GRIDFORMAT_BEGIN
 90
        0
 91
        1
 62
     0
 92
       -2
340
0
 93
        0
 40
0.045
309
GRIDFORMAT_END
 95
       16
302
GRIDFORMAT
  1
GRIDFORMAT_BEGIN
 90
        0
 91
        1
 62
     0
 92
       -2
340
0
 93
        0
 40
0.045
309
GRIDFORMAT_END
 95
       32
302
GRIDFORMAT
  1
GRIDFORMAT_BEGIN
 90
        0
 91
        1
 62
     0
 92
       -2
340
0
 93
        0
 40
0.045
309
GRIDFORMAT_END
309
TABLEFORMAT_END
  1
CELLSTYLE_BEGIN
 90
        2
 91
        1
300
_HEADER
309
CELLSTYLE_END
300
CELLSTYLE
  1
TABLEFORMAT_BEGIN
 90
        5
170
     1
 91
        0
 92
        0
 62
   257
 93
        1
300
CONTENTFORMAT
  1
CONTENTFORMAT_BEGIN
 90
        0
 91
        0
 92
      512
 93
        0
300

 40
0.0
140
1.0
 94
        2
 62
     0
340
11
144
0.18
309
CONTENTFORMAT_END
171
     1
301
MARGIN
  1
CELLMARGIN_BEGIN
 40
0.06
 40
0.06
 40
0.06
 40
0.06
 40
0.18
 40
0.18
309
CELLMARGIN_END
 94
        6
 95
        1
302
GRIDFORMAT
  1
GRIDFORMAT_BEGIN
 90
        0
 91
        1
 62
     0
 92
       -2
340
0
 93
        0
 40
0.045
309
GRIDFORMAT_END
 95
        2
302
GRIDFORMAT
  1
GRIDFORMAT_BEGIN
 90
        0
 91
        1
 62
     0
 92
       -2
340
0
 93
        0
 40
0.045
309
GRIDFORMAT_END
 95
        4
302
GRIDFORMAT
  1
GRIDFORMAT_BEGIN
 90
        0
 91
        1
 62
     0
 92
       -2
340
0
 93
        0
 40
0.045
309
GRIDFORMAT_END
 95
        8
302
GRIDFORMAT
  1
GRIDFORMAT_BEGIN
 90
        0
 91
        1
 62
     0
 92
       -2
340
0
 93
        0
 40
0.045
309
GRIDFORMAT_END
 95
       16
302
GRIDFORMAT
  1
GRIDFORMAT_BEGIN
 90
        0
 91
        1
 62
     0
 92
       -2
340
0
 93
        0
 40
0.045
309
GRIDFORMAT_END
 95
       32
302
GRIDFORMAT
  1
GRIDFORMAT_BEGIN
 90
        0
 91
        1
 62
     0
 92
       -2
340
0
 93
        0
 40
0.045
309
GRIDFORMAT_END
309
TABLEFORMAT_END
  1
CELLSTYLE_BEGIN
 90
        3
 91
        2
300
_DATA
309
CELLSTYLE_END
  0
XRECORD
  5
3724
102
{ACAD_REACTORS
330
439
102
}
330
439
100
AcDbXrecord
280
     1
102
ACAD_ROUNDTRIP_PRE2007_TABLESTYLE
 90
      512
 91
        0
  1

 92
      512
 93
        0
  2

 94
      512
 95
        0
  3

  0
XRECORD
  5
36FF
102
{ACAD_REACTORS
330
36FE
102
}
330
36FE
100
AcDbXrecord
280
     1
102
RTVSPropertyOp0
 70
     1
102
RTVSPropertyOp1
 70
     1
102
RTVSPropertyOp2
 70
     1
102
RTVSPropertyOp3
 70
     1
102
RTVSPropertyOp4
 70
     1
102
RTVSPropertyOp5
 70
     1
102
RTVSPropertyOp6
 70
     1
102
RTVSPropertyOp7
 70
     1
102
RTVSPropertyOp8
 70
     1
102
RTVSPropertyOp9
 70
     1
102
RTVSPropertyOp10
 70
     1
102
RTVSPropertyOp11
 70
     1
102
RTVSPropertyOp12
 70
     1
102
RTVSPropertyOp13
 70
     1
102
RTVSPropertyOp14
 70
     1
102
RTVSPropertyOp15
 70
     1
102
RTVSPropertyOp16
 70
     1
102
RTVSPropertyOp17
 70
     1
102
RTVSPropertyOp18
 70
     1
102
RTVSPropertyOp19
 70
     1
102
RTVSPropertyOp20
 70
     1
102
RTVSPropertyOp21
 70
     1
102
RTVSPropertyOp22
 70
     1
102
RTVSPropertyOp23
 70
     1
102
RTVSPropertyOp24
 70
     1
102
RTVSPropertyOp25
 70
     1
102
RTVSPropertyOp26
 70
     1
102
RTVSPropertyOp27
 70
     1
102
RTVSPropertyOp28
 70
     1
102
RTVSPropertyOp29
 70
     1
102
RTVSPropertyOp30
 70
     1
102
RTVSPropertyOp31
 70
     1
102
RTVSPropertyOp32
 70
     1
  0
XRECORD
  5
3728
102
{ACAD_REACTORS
330
3727
102
}
330
3727
100
AcDbXrecord
280
     1
102
RTVSPropertyOp0
 70
     1
102
RTVSPropertyOp1
 70
     1
102
RTVSPropertyOp2
 70
     1
102
RTVSPropertyOp3
 70
     1
102
RTVSPropertyOp4
 70
     1
102
RTVSPropertyOp5
 70
     1
102
RTVSPropertyOp6
 70
     1
102
RTVSPropertyOp7
 70
     1
102
RTVSPropertyOp8
 70
     1
102
RTVSPropertyOp9
 70
     1
102
RTVSPropertyOp10
 70
     1
102
RTVSPropertyOp11
 70
     1
102
RTVSPropertyOp12
 70
     1
102
RTVSPropertyOp13
 70
     1
102
RTVSPropertyOp14
 70
     1
102
RTVSPropertyOp15
 70
     1
102
RTVSPropertyOp16
 70
     1
102
RTVSPropertyOp17
 70
     1
102
RTVSPropertyOp18
 70
     1
102
RTVSPropertyOp19
 70
     1
102
RTVSPropertyOp20
 70
     1
102
RTVSPropertyOp21
 70
     1
102
RTVSPropertyOp22
 70
     1
102
RTVSPropertyOp23
 70
     1
102
RTVSPropertyOp24
 70
     1
102
RTVSPropertyOp25
 70
     1
102
RTVSPropertyOp26
 70
     1
102
RTVSPropertyOp27
 70
     1
102
RTVSPropertyOp28
 70
     1
102
RTVSPropertyOp29
 70
     1
102
RTVSPropertyOp30
 70
     1
102
RTVSPropertyOp31
 70
     1
102
RTVSPropertyOp32
 70
     1
  0
XRECORD
  5
3726
102
{ACAD_REACTORS
330
3725
102
}
330
3725
100
AcDbXrecord
280
     1
102
RTVSPropertyOp0
 70
     1
102
RTVSPropertyOp1
 70
     1
102
RTVSPropertyOp2
 70
     1
102
RTVSPropertyOp3
 70
     1
102
RTVSPropertyOp4
 70
     1
102
RTVSPropertyOp5
 70
     1
102
RTVSPropertyOp6
 70
     1
102
RTVSPropertyOp7
 70
     1
102
RTVSPropertyOp8
 70
     1
102
RTVSPropertyOp9
 70
     1
102
RTVSPropertyOp10
 70
     1
102
RTVSPropertyOp11
 70
     1
102
RTVSPropertyOp12
 70
     1
102
RTVSPropertyOp13
 70
     1
102
RTVSPropertyOp14
 70
     1
102
RTVSPropertyOp15
 70
     1
102
RTVSPropertyOp16
 70
     1
102
RTVSPropertyOp17
 70
     1
102
RTVSPropertyOp18
 70
     1
102
RTVSPropertyOp19
 70
     1
102
RTVSPropertyOp20
 70
     1
102
RTVSPropertyOp21
 70
     1
102
RTVSPropertyOp22
 70
     1
102
RTVSPropertyOp23
 70
     1
102
RTVSPropertyOp24
 70
     1
102
RTVSPropertyOp25
 70
     1
102
RTVSPropertyOp26
 70
     1
102
RTVSPropertyOp27
 70
     1
102
RTVSPropertyOp28
 70
     1
102
RTVSPropertyOp29
 70
     1
102
RTVSPropertyOp30
 70
     1
102
RTVSPropertyOp31
 70
     1
102
RTVSPropertyOp32
 70
     1
  0
XRECORD
  5
36FD
102
{ACAD_REACTORS
330
36FC
102
}
330
36FC
100
AcDbXrecord
280
     1
102
RTVSPropertyOp0
 70
     1
102
RTVSPropertyOp1
 70
     1
102
RTVSPropertyOp2
 70
     1
102
RTVSPropertyOp3
 70
     1
102
RTVSPropertyOp4
 70
     1
102
RTVSPropertyOp5
 70
     1
102
RTVSPropertyOp6
 70
     1
102
RTVSPropertyOp7
 70
     1
102
RTVSPropertyOp8
 70
     1
102
RTVSPropertyOp9
 70
     1
102
RTVSPropertyOp10
 70
     1
102
RTVSPropertyOp11
 70
     1
102
RTVSPropertyOp12
 70
     1
102
RTVSPropertyOp13
 70
     1
102
RTVSPropertyOp14
 70
     1
102
RTVSPropertyOp15
 70
     1
102
RTVSPropertyOp16
 70
     1
102
RTVSPropertyOp17
 70
     1
102
RTVSPropertyOp18
 70
     1
102
RTVSPropertyOp19
 70
     1
102
RTVSPropertyOp20
 70
     1
102
RTVSPropertyOp21
 70
     1
102
RTVSPropertyOp22
 70
     1
102
RTVSPropertyOp23
 70
     1
102
RTVSPropertyOp24
 70
     1
102
RTVSPropertyOp25
 70
     1
102
RTVSPropertyOp26
 70
     1
102
RTVSPropertyOp27
 70
     1
102
RTVSPropertyOp28
 70
     1
102
RTVSPropertyOp29
 70
     1
102
RTVSPropertyOp30
 70
     1
102
RTVSPropertyOp31
 70
     1
102
RTVSPropertyOp32
 70
     1
  0
XRECORD
  5
370B
102
{ACAD_REACTORS
330
370A
102
}
330
370A
100
AcDbXrecord
280
     1
102
RTVSPropertyOp0
 70
     1
102
RTVSPropertyOp1
 70
     1
102
RTVSPropertyOp2
 70
     1
102
RTVSPropertyOp3
 70
     1
102
RTVSPropertyOp4
 70
     1
102
RTVSPropertyOp5
 70
     1
102
RTVSPropertyOp6
 70
     1
102
RTVSPropertyOp7
 70
     1
102
RTVSPropertyOp8
 70
     1
102
RTVSPropertyOp9
 70
     1
102
RTVSPropertyOp10
 70
     1
102
RTVSPropertyOp11
 70
     1
102
RTVSPropertyOp12
 70
     1
102
RTVSPropertyOp13
 70
     1
102
RTVSPropertyOp14
 70
     1
102
RTVSPropertyOp15
 70
     1
102
RTVSPropertyOp16
 70
     1
102
RTVSPropertyOp17
 70
     1
102
RTVSPropertyOp18
 70
     1
102
RTVSPropertyOp19
 70
     1
102
RTVSPropertyOp20
 70
     1
102
RTVSPropertyOp21
 70
     1
102
RTVSPropertyOp22
 70
     1
102
RTVSPropertyOp23
 70
     1
102
RTVSPropertyOp24
 70
     1
102
RTVSPropertyOp25
 70
     1
102
RTVSPropertyOp26
 70
     1
102
RTVSPropertyOp27
 70
     1
102
RTVSPropertyOp28
 70
     1
102
RTVSPropertyOp29
 70
     1
102
RTVSPropertyOp30
 70
     1
102
RTVSPropertyOp31
 70
     1
102
RTVSPropertyOp32
 70
     1
  0
XRECORD
  5
3713
102
{ACAD_REACTORS
330
3712
102
}
330
3712
100
AcDbXrecord
280
     1
102
RTVSPropertyOp0
 70
     1
102
RTVSPropertyOp1
 70
     1
102
RTVSPropertyOp2
 70
     1
102
RTVSPropertyOp3
 70
     1
102
RTVSPropertyOp4
 70
     1
102
RTVSPropertyOp5
 70
     1
102
RTVSPropertyOp6
 70
     1
102
RTVSPropertyOp7
 70
     1
102
RTVSPropertyOp8
 70
     1
102
RTVSPropertyOp9
 70
     1
102
RTVSPropertyOp10
 70
     1
102
RTVSPropertyOp11
 70
     1
102
RTVSPropertyOp12
 70
     1
102
RTVSPropertyOp13
 70
     1
102
RTVSPropertyOp14
 70
     1
102
RTVSPropertyOp15
 70
     1
102
RTVSPropertyOp16
 70
     1
102
RTVSPropertyOp17
 70
     1
102
RTVSPropertyOp18
 70
     1
102
RTVSPropertyOp19
 70
     1
102
RTVSPropertyOp20
 70
     1
102
RTVSPropertyOp21
 70
     1
102
RTVSPropertyOp22
 70
     1
102
RTVSPropertyOp23
 70
     1
102
RTVSPropertyOp24
 70
     1
102
RTVSPropertyOp25
 70
     1
102
RTVSPropertyOp26
 70
     1
102
RTVSPropertyOp27
 70
     1
102
RTVSPropertyOp28
 70
     1
102
RTVSPropertyOp29
 70
     1
102
RTVSPropertyOp30
 70
     1
102
RTVSPropertyOp31
 70
     1
102
RTVSPropertyOp32
 70
     1
  0
XRECORD
  5
3705
102
{ACAD_REACTORS
330
3704
102
}
330
3704
100
AcDbXrecord
280
     1
102
RTVSPropertyOp0
 70
     1
102
RTVSPropertyOp1
 70
     1
102
RTVSPropertyOp2
 70
     1
102
RTVSPropertyOp3
 70
     1
102
RTVSPropertyOp4
 70
     1
102
RTVSPropertyOp5
 70
     1
102
RTVSPropertyOp6
 70
     1
102
RTVSPropertyOp7
 70
     1
102
RTVSPropertyOp8
 70
     1
102
RTVSPropertyOp9
 70
     1
102
RTVSPropertyOp10
 70
     1
102
RTVSPropertyOp11
 70
     1
102
RTVSPropertyOp12
 70
     1
102
RTVSPropertyOp13
 70
     1
102
RTVSPropertyOp14
 70
     1
102
RTVSPropertyOp15
 70
     1
102
RTVSPropertyOp16
 70
     1
102
RTVSPropertyOp17
 70
     1
102
RTVSPropertyOp18
 70
     1
102
RTVSPropertyOp19
 70
     1
102
RTVSPropertyOp20
 70
     1
102
RTVSPropertyOp21
 70
     1
102
RTVSPropertyOp22
 70
     1
102
RTVSPropertyOp23
 70
     1
102
RTVSPropertyOp24
 70
     1
102
RTVSPropertyOp25
 70
     1
102
RTVSPropertyOp26
 70
     1
102
RTVSPropertyOp27
 70
     1
102
RTVSPropertyOp28
 70
     1
102
RTVSPropertyOp29
 70
     1
102
RTVSPropertyOp30
 70
     1
102
RTVSPropertyOp31
 70
     1
102
RTVSPropertyOp32
 70
     1
  0
XRECORD
  5
3709
102
{ACAD_REACTORS
330
3708
102
}
330
3708
100
AcDbXrecord
280
     1
102
RTVSPropertyOp0
 70
     1
102
RTVSPropertyOp1
 70
     1
102
RTVSPropertyOp2
 70
     1
102
RTVSPropertyOp3
 70
     1
102
RTVSPropertyOp4
 70
     1
102
RTVSPropertyOp5
 70
     1
102
RTVSPropertyOp6
 70
     1
102
RTVSPropertyOp7
 70
     1
102
RTVSPropertyOp8
 70
     1
102
RTVSPropertyOp9
 70
     1
102
RTVSPropertyOp10
 70
     1
102
RTVSPropertyOp11
 70
     1
102
RTVSPropertyOp12
 70
     1
102
RTVSPropertyOp13
 70
     1
102
RTVSPropertyOp14
 70
     1
102
RTVSPropertyOp15
 70
     1
102
RTVSPropertyOp16
 70
     1
102
RTVSPropertyOp17
 70
     1
102
RTVSPropertyOp18
 70
     1
102
RTVSPropertyOp19
 70
     1
102
RTVSPropertyOp20
 70
     1
102
RTVSPropertyOp21
 70
     1
102
RTVSPropertyOp22
 70
     1
102
RTVSPropertyOp23
 70
     1
102
RTVSPropertyOp24
 70
     1
102
RTVSPropertyOp25
 70
     1
102
RTVSPropertyOp26
 70
     1
102
RTVSPropertyOp27
 70
     1
102
RTVSPropertyOp28
 70
     1
102
RTVSPropertyOp29
 70
     1
102
RTVSPropertyOp30
 70
     1
102
RTVSPropertyOp31
 70
     1
102
RTVSPropertyOp32
 70
     1
  0
XRECORD
  5
3723
102
{ACAD_REACTORS
330
3722
102
}
330
3722
100
AcDbXrecord
280
     1
102
RTVSPropertyOp0
 70
     0
102
RTVSPropertyOp1
 70
     0
102
RTVSPropertyOp2
 70
     0
102
RTVSPropertyOp3
 70
     0
102
RTVSPropertyOp4
 70
     1
102
RTVSPropertyOp5
 70
     1
102
RTVSPropertyOp6
 70
     0
102
RTVSPropertyOp7
 70
     0
102
RTVSPropertyOp8
 70
     0
102
RTVSPropertyOp9
 70
     0
102
RTVSPropertyOp10
 70
     0
102
RTVSPropertyOp11
 70
     0
102
RTVSPropertyOp12
 70
     0
102
RTVSPropertyOp13
 70
     0
102
RTVSPropertyOp14
 70
     2
102
RTVSPropertyOp15
 70
     0
102
RTVSPropertyOp16
 70
     0
102
RTVSPropertyOp17
 70
     0
102
RTVSPropertyOp18
 70
     0
102
RTVSPropertyOp19
 70
     0
102
RTVSPropertyOp20
 70
     0
102
RTVSPropertyOp21
 70
     0
102
RTVSPropertyOp22
 70
     0
102
RTVSPropertyOp23
 70
     0
102
RTVSPropertyOp24
 70
     0
102
RTVSPropertyOp25
 70
     0
102
RTVSPropertyOp26
 70
     0
102
RTVSPropertyOp27
 70
     0
102
RTVSPropertyOp28
 70
     1
102
RTVSPropertyOp29
 70
     1
102
RTVSPropertyOp30
 70
     1
102
RTVSPropertyOp31
 70
     1
102
RTVSPropertyOp32
 70
     1
  0
XRECORD
  5
3711
102
{ACAD_REACTORS
330
3710
102
}
330
3710
100
AcDbXrecord
280
     1
102
RTVSPropertyOp0
 70
     1
102
RTVSPropertyOp1
 70
     1
102
RTVSPropertyOp2
 70
     1
102
RTVSPropertyOp3
 70
     1
102
RTVSPropertyOp4
 70
     1
102
RTVSPropertyOp5
 70
     1
102
RTVSPropertyOp6
 70
     1
102
RTVSPropertyOp7
 70
     1
102
RTVSPropertyOp8
 70
     1
102
RTVSPropertyOp9
 70
     1
102
RTVSPropertyOp10
 70
     1
102
RTVSPropertyOp11
 70
     1
102
RTVSPropertyOp12
 70
     1
102
RTVSPropertyOp13
 70
     1
102
RTVSPropertyOp14
 70
     1
102
RTVSPropertyOp15
 70
     1
102
RTVSPropertyOp16
 70
     1
102
RTVSPropertyOp17
 70
     1
102
RTVSPropertyOp18
 70
     1
102
RTVSPropertyOp19
 70
     1
102
RTVSPropertyOp20
 70
     1
102
RTVSPropertyOp21
 70
     1
102
RTVSPropertyOp22
 70
     1
102
RTVSPropertyOp23
 70
     1
102
RTVSPropertyOp24
 70
     1
102
RTVSPropertyOp25
 70
     1
102
RTVSPropertyOp26
 70
     1
102
RTVSPropertyOp27
 70
     1
102
RTVSPropertyOp28
 70
     1
102
RTVSPropertyOp29
 70
     1
102
RTVSPropertyOp30
 70
     1
102
RTVSPropertyOp31
 70
     1
102
RTVSPropertyOp32
 70
     1
  0
XRECORD
  5
36F5
102
{ACAD_REACTORS
330
36F4
102
}
330
36F4
100
AcDbXrecord
280
     1
102
RTVSPropertyOp0
 70
     1
102
RTVSPropertyOp1
 70
     1
102
RTVSPropertyOp2
 70
     1
102
RTVSPropertyOp3
 70
     1
102
RTVSPropertyOp4
 70
     1
102
RTVSPropertyOp5
 70
     1
102
RTVSPropertyOp6
 70
     1
102
RTVSPropertyOp7
 70
     1
102
RTVSPropertyOp8
 70
     1
102
RTVSPropertyOp9
 70
     1
102
RTVSPropertyOp10
 70
     1
102
RTVSPropertyOp11
 70
     1
102
RTVSPropertyOp12
 70
     1
102
RTVSPropertyOp13
 70
     1
102
RTVSPropertyOp14
 70
     1
102
RTVSPropertyOp15
 70
     1
102
RTVSPropertyOp16
 70
     1
102
RTVSPropertyOp17
 70
     1
102
RTVSPropertyOp18
 70
     1
102
RTVSPropertyOp19
 70
     1
102
RTVSPropertyOp20
 70
     1
102
RTVSPropertyOp21
 70
     1
102
RTVSPropertyOp22
 70
     1
102
RTVSPropertyOp23
 70
     1
102
RTVSPropertyOp24
 70
     1
102
RTVSPropertyOp25
 70
     1
102
RTVSPropertyOp26
 70
     1
102
RTVSPropertyOp27
 70
     1
102
RTVSPropertyOp28
 70
     1
102
RTVSPropertyOp29
 70
     1
102
RTVSPropertyOp30
 70
     1
102
RTVSPropertyOp31
 70
     1
102
RTVSPropertyOp32
 70
     1
  0
XRECORD
  5
36F7
102
{ACAD_REACTORS
330
36F6
102
}
330
36F6
100
AcDbXrecord
280
     1
102
RTVSPropertyOp0
 70
     1
102
RTVSPropertyOp1
 70
     1
102
RTVSPropertyOp2
 70
     1
102
RTVSPropertyOp3
 70
     1
102
RTVSPropertyOp4
 70
     1
102
RTVSPropertyOp5
 70
     1
102
RTVSPropertyOp6
 70
     1
102
RTVSPropertyOp7
 70
     1
102
RTVSPropertyOp8
 70
     1
102
RTVSPropertyOp9
 70
     1
102
RTVSPropertyOp10
 70
     1
102
RTVSPropertyOp11
 70
     1
102
RTVSPropertyOp12
 70
     1
102
RTVSPropertyOp13
 70
     1
102
RTVSPropertyOp14
 70
     1
102
RTVSPropertyOp15
 70
     1
102
RTVSPropertyOp16
 70
     1
102
RTVSPropertyOp17
 70
     1
102
RTVSPropertyOp18
 70
     1
102
RTVSPropertyOp19
 70
     1
102
RTVSPropertyOp20
 70
     1
102
RTVSPropertyOp21
 70
     1
102
RTVSPropertyOp22
 70
     1
102
RTVSPropertyOp23
 70
     1
102
RTVSPropertyOp24
 70
     1
102
RTVSPropertyOp25
 70
     1
102
RTVSPropertyOp26
 70
     1
102
RTVSPropertyOp27
 70
     1
102
RTVSPropertyOp28
 70
     1
102
RTVSPropertyOp29
 70
     1
102
RTVSPropertyOp30
 70
     1
102
RTVSPropertyOp31
 70
     1
102
RTVSPropertyOp32
 70
     1
  0
XRECORD
  5
36F9
102
{ACAD_REACTORS
330
36F8
102
}
330
36F8
100
AcDbXrecord
280
     1
102
RTVSPropertyOp0
 70
     1
102
RTVSPropertyOp1
 70
     1
102
RTVSPropertyOp2
 70
     1
102
RTVSPropertyOp3
 70
     1
102
RTVSPropertyOp4
 70
     1
102
RTVSPropertyOp5
 70
     1
102
RTVSPropertyOp6
 70
     1
102
RTVSPropertyOp7
 70
     1
102
RTVSPropertyOp8
 70
     1
102
RTVSPropertyOp9
 70
     1
102
RTVSPropertyOp10
 70
     1
102
RTVSPropertyOp11
 70
     1
102
RTVSPropertyOp12
 70
     1
102
RTVSPropertyOp13
 70
     1
102
RTVSPropertyOp14
 70
     1
102
RTVSPropertyOp15
 70
     1
102
RTVSPropertyOp16
 70
     1
102
RTVSPropertyOp17
 70
     1
102
RTVSPropertyOp18
 70
     1
102
RTVSPropertyOp19
 70
     1
102
RTVSPropertyOp20
 70
     1
102
RTVSPropertyOp21
 70
     1
102
RTVSPropertyOp22
 70
     1
102
RTVSPropertyOp23
 70
     1
102
RTVSPropertyOp24
 70
     1
102
RTVSPropertyOp25
 70
     1
102
RTVSPropertyOp26
 70
     1
102
RTVSPropertyOp27
 70
     1
102
RTVSPropertyOp28
 70
     1
102
RTVSPropertyOp29
 70
     1
102
RTVSPropertyOp30
 70
     1
102
RTVSPropertyOp31
 70
     1
102
RTVSPropertyOp32
 70
     1
  0
XRECORD
  5
36FB
102
{ACAD_REACTORS
330
36FA
102
}
330
36FA
100
AcDbXrecord
280
     1
102
RTVSPropertyOp0
 70
     1
102
RTVSPropertyOp1
 70
     1
102
RTVSPropertyOp2
 70
     1
102
RTVSPropertyOp3
 70
     1
102
RTVSPropertyOp4
 70
     1
102
RTVSPropertyOp5
 70
     1
102
RTVSPropertyOp6
 70
     1
102
RTVSPropertyOp7
 70
     1
102
RTVSPropertyOp8
 70
     1
102
RTVSPropertyOp9
 70
     1
102
RTVSPropertyOp10
 70
     1
102
RTVSPropertyOp11
 70
     1
102
RTVSPropertyOp12
 70
     1
102
RTVSPropertyOp13
 70
     1
102
RTVSPropertyOp14
 70
     1
102
RTVSPropertyOp15
 70
     1
102
RTVSPropertyOp16
 70
     1
102
RTVSPropertyOp17
 70
     1
102
RTVSPropertyOp18
 70
     1
102
RTVSPropertyOp19
 70
     1
102
RTVSPropertyOp20
 70
     1
102
RTVSPropertyOp21
 70
     1
102
RTVSPropertyOp22
 70
     1
102
RTVSPropertyOp23
 70
     1
102
RTVSPropertyOp24
 70
     1
102
RTVSPropertyOp25
 70
     1
102
RTVSPropertyOp26
 70
     1
102
RTVSPropertyOp27
 70
     1
102
RTVSPropertyOp28
 70
     1
102
RTVSPropertyOp29
 70
     1
102
RTVSPropertyOp30
 70
     1
102
RTVSPropertyOp31
 70
     1
102
RTVSPropertyOp32
 70
     1
  0
XRECORD
  5
3703
102
{ACAD_REACTORS
330
3702
102
}
330
3702
100
AcDbXrecord
280
     1
102
RTVSPropertyOp0
 70
     1
102
RTVSPropertyOp1
 70
     1
102
RTVSPropertyOp2
 70
     1
102
RTVSPropertyOp3
 70
     1
102
RTVSPropertyOp4
 70
     1
102
RTVSPropertyOp5
 70
     1
102
RTVSPropertyOp6
 70
     1
102
RTVSPropertyOp7
 70
     1
102
RTVSPropertyOp8
 70
     1
102
RTVSPropertyOp9
 70
     1
102
RTVSPropertyOp10
 70
     1
102
RTVSPropertyOp11
 70
     1
102
RTVSPropertyOp12
 70
     1
102
RTVSPropertyOp13
 70
     1
102
RTVSPropertyOp14
 70
     1
102
RTVSPropertyOp15
 70
     1
102
RTVSPropertyOp16
 70
     1
102
RTVSPropertyOp17
 70
     1
102
RTVSPropertyOp18
 70
     1
102
RTVSPropertyOp19
 70
     1
102
RTVSPropertyOp20
 70
     1
102
RTVSPropertyOp21
 70
     1
102
RTVSPropertyOp22
 70
     1
102
RTVSPropertyOp23
 70
     1
102
RTVSPropertyOp24
 70
     1
102
RTVSPropertyOp25
 70
     1
102
RTVSPropertyOp26
 70
     1
102
RTVSPropertyOp27
 70
     1
102
RTVSPropertyOp28
 70
     1
102
RTVSPropertyOp29
 70
     1
102
RTVSPropertyOp30
 70
     1
102
RTVSPropertyOp31
 70
     1
102
RTVSPropertyOp32
 70
     1
  0
XRECORD
  5
371F
102
{ACAD_REACTORS
330
371E
102
}
330
371E
100
AcDbXrecord
280
     1
102
RTVSPropertyOp0
 70
     0
102
RTVSPropertyOp1
 70
     0
102
RTVSPropertyOp2
 70
     0
102
RTVSPropertyOp3
 70
     0
102
RTVSPropertyOp4
 70
     1
102
RTVSPropertyOp5
 70
     1
102
RTVSPropertyOp6
 70
     0
102
RTVSPropertyOp7
 70
     0
102
RTVSPropertyOp8
 70
     0
102
RTVSPropertyOp9
 70
     0
102
RTVSPropertyOp10
 70
     0
102
RTVSPropertyOp11
 70
     0
102
RTVSPropertyOp12
 70
     0
102
RTVSPropertyOp13
 70
     0
102
RTVSPropertyOp14
 70
     2
102
RTVSPropertyOp15
 70
     0
102
RTVSPropertyOp16
 70
     0
102
RTVSPropertyOp17
 70
     0
102
RTVSPropertyOp18
 70
     0
102
RTVSPropertyOp19
 70
     0
102
RTVSPropertyOp20
 70
     0
102
RTVSPropertyOp21
 70
     0
102
RTVSPropertyOp22
 70
     0
102
RTVSPropertyOp23
 70
     0
102
RTVSPropertyOp24
 70
     0
102
RTVSPropertyOp25
 70
     0
102
RTVSPropertyOp26
 70
     0
102
RTVSPropertyOp27
 70
     0
102
RTVSPropertyOp28
 70
     1
102
RTVSPropertyOp29
 70
     1
102
RTVSPropertyOp30
 70
     1
102
RTVSPropertyOp31
 70
     1
102
RTVSPropertyOp32
 70
     1
  0
XRECORD
  5
370F
102
{ACAD_REACTORS
330
370E
102
}
330
370E
100
AcDbXrecord
280
     1
102
RTVSPropertyOp0
 70
     1
102
RTVSPropertyOp1
 70
     1
102
RTVSPropertyOp2
 70
     1
102
RTVSPropertyOp3
 70
     1
102
RTVSPropertyOp4
 70
     1
102
RTVSPropertyOp5
 70
     1
102
RTVSPropertyOp6
 70
     1
102
RTVSPropertyOp7
 70
     1
102
RTVSPropertyOp8
 70
     1
102
RTVSPropertyOp9
 70
     1
102
RTVSPropertyOp10
 70
     1
102
RTVSPropertyOp11
 70
     1
102
RTVSPropertyOp12
 70
     1
102
RTVSPropertyOp13
 70
     1
102
RTVSPropertyOp14
 70
     1
102
RTVSPropertyOp15
 70
     1
102
RTVSPropertyOp16
 70
     1
102
RTVSPropertyOp17
 70
     1
102
RTVSPropertyOp18
 70
     1
102
RTVSPropertyOp19
 70
     1
102
RTVSPropertyOp20
 70
     1
102
RTVSPropertyOp21
 70
     1
102
RTVSPropertyOp22
 70
     1
102
RTVSPropertyOp23
 70
     1
102
RTVSPropertyOp24
 70
     1
102
RTVSPropertyOp25
 70
     1
102
RTVSPropertyOp26
 70
     1
102
RTVSPropertyOp27
 70
     1
102
RTVSPropertyOp28
 70
     1
102
RTVSPropertyOp29
 70
     1
102
RTVSPropertyOp30
 70
     1
102
RTVSPropertyOp31
 70
     1
102
RTVSPropertyOp32
 70
     1
  0
XRECORD
  5
3721
102
{ACAD_REACTORS
330
3720
102
}
330
3720
100
AcDbXrecord
280
     1
102
RTVSPropertyOp0
 70
     0
102
RTVSPropertyOp1
 70
     0
102
RTVSPropertyOp2
 70
     0
102
RTVSPropertyOp3
 70
     0
102
RTVSPropertyOp4
 70
     1
102
RTVSPropertyOp5
 70
     1
102
RTVSPropertyOp6
 70
     0
102
RTVSPropertyOp7
 70
     0
102
RTVSPropertyOp8
 70
     0
102
RTVSPropertyOp9
 70
     0
102
RTVSPropertyOp10
 70
     0
102
RTVSPropertyOp11
 70
     0
102
RTVSPropertyOp12
 70
     0
102
RTVSPropertyOp13
 70
     0
102
RTVSPropertyOp14
 70
     2
102
RTVSPropertyOp15
 70
     0
102
RTVSPropertyOp16
 70
     0
102
RTVSPropertyOp17
 70
     0
102
RTVSPropertyOp18
 70
     0
102
RTVSPropertyOp19
 70
     0
102
RTVSPropertyOp20
 70
     0
102
RTVSPropertyOp21
 70
     0
102
RTVSPropertyOp22
 70
     0
102
RTVSPropertyOp23
 70
     0
102
RTVSPropertyOp24
 70
     0
102
RTVSPropertyOp25
 70
     0
102
RTVSPropertyOp26
 70
     0
102
RTVSPropertyOp27
 70
     0
102
RTVSPropertyOp28
 70
     1
102
RTVSPropertyOp29
 70
     1
102
RTVSPropertyOp30
 70
     1
102
RTVSPropertyOp31
 70
     1
102
RTVSPropertyOp32
 70
     1
  0
XRECORD
  5
3707
102
{ACAD_REACTORS
330
3706
102
}
330
3706
100
AcDbXrecord
280
     1
102
RTVSPropertyOp0
 70
     1
102
RTVSPropertyOp1
 70
     1
102
RTVSPropertyOp2
 70
     1
102
RTVSPropertyOp3
 70
     1
102
RTVSPropertyOp4
 70
     1
102
RTVSPropertyOp5
 70
     1
102
RTVSPropertyOp6
 70
     1
102
RTVSPropertyOp7
 70
     1
102
RTVSPropertyOp8
 70
     1
102
RTVSPropertyOp9
 70
     1
102
RTVSPropertyOp10
 70
     1
102
RTVSPropertyOp11
 70
     1
102
RTVSPropertyOp12
 70
     1
102
RTVSPropertyOp13
 70
     1
102
RTVSPropertyOp14
 70
     1
102
RTVSPropertyOp15
 70
     1
102
RTVSPropertyOp16
 70
     1
102
RTVSPropertyOp17
 70
     1
102
RTVSPropertyOp18
 70
     1
102
RTVSPropertyOp19
 70
     1
102
RTVSPropertyOp20
 70
     1
102
RTVSPropertyOp21
 70
     1
102
RTVSPropertyOp22
 70
     1
102
RTVSPropertyOp23
 70
     1
102
RTVSPropertyOp24
 70
     1
102
RTVSPropertyOp25
 70
     1
102
RTVSPropertyOp26
 70
     1
102
RTVSPropertyOp27
 70
     1
102
RTVSPropertyOp28
 70
     1
102
RTVSPropertyOp29
 70
     1
102
RTVSPropertyOp30
 70
     1
102
RTVSPropertyOp31
 70
     1
102
RTVSPropertyOp32
 70
     1
  0
XRECORD
  5
371D
102
{ACAD_REACTORS
330
371C
102
}
330
371C
100
AcDbXrecord
280
     1
102
RTVSPropertyOp0
 70
     1
102
RTVSPropertyOp1
 70
     1
102
RTVSPropertyOp2
 70
     1
102
RTVSPropertyOp3
 70
     1
102
RTVSPropertyOp4
 70
     1
102
RTVSPropertyOp5
 70
     1
102
RTVSPropertyOp6
 70
     1
102
RTVSPropertyOp7
 70
     1
102
RTVSPropertyOp8
 70
     1
102
RTVSPropertyOp9
 70
     1
102
RTVSPropertyOp10
 70
     1
102
RTVSPropertyOp11
 70
     1
102
RTVSPropertyOp12
 70
     1
102
RTVSPropertyOp13
 70
     1
102
RTVSPropertyOp14
 70
     1
102
RTVSPropertyOp15
 70
     1
102
RTVSPropertyOp16
 70
     1
102
RTVSPropertyOp17
 70
     1
102
RTVSPropertyOp18
 70
     1
102
RTVSPropertyOp19
 70
     1
102
RTVSPropertyOp20
 70
     1
102
RTVSPropertyOp21
 70
     1
102
RTVSPropertyOp22
 70
     1
102
RTVSPropertyOp23
 70
     1
102
RTVSPropertyOp24
 70
     1
102
RTVSPropertyOp25
 70
     1
102
RTVSPropertyOp26
 70
     1
102
RTVSPropertyOp27
 70
     1
102
RTVSPropertyOp28
 70
     1
102
RTVSPropertyOp29
 70
     1
102
RTVSPropertyOp30
 70
     1
102
RTVSPropertyOp31
 70
     1
102
RTVSPropertyOp32
 70
     1
  0
XRECORD
  5
371B
102
{ACAD_REACTORS
330
371A
102
}
330
371A
100
AcDbXrecord
280
     1
102
RTVSPropertyOp0
 70
     1
102
RTVSPropertyOp1
 70
     1
102
RTVSPropertyOp2
 70
     1
102
RTVSPropertyOp3
 70
     1
102
RTVSPropertyOp4
 70
     1
102
RTVSPropertyOp5
 70
     1
102
RTVSPropertyOp6
 70
     1
102
RTVSPropertyOp7
 70
     1
102
RTVSPropertyOp8
 70
     1
102
RTVSPropertyOp9
 70
     1
102
RTVSPropertyOp10
 70
     1
102
RTVSPropertyOp11
 70
     1
102
RTVSPropertyOp12
 70
     1
102
RTVSPropertyOp13
 70
     1
102
RTVSPropertyOp14
 70
     1
102
RTVSPropertyOp15
 70
     1
102
RTVSPropertyOp16
 70
     1
102
RTVSPropertyOp17
 70
     1
102
RTVSPropertyOp18
 70
     1
102
RTVSPropertyOp19
 70
     1
102
RTVSPropertyOp20
 70
     1
102
RTVSPropertyOp21
 70
     1
102
RTVSPropertyOp22
 70
     1
102
RTVSPropertyOp23
 70
     1
102
RTVSPropertyOp24
 70
     1
102
RTVSPropertyOp25
 70
     1
102
RTVSPropertyOp26
 70
     1
102
RTVSPropertyOp27
 70
     1
102
RTVSPropertyOp28
 70
     1
102
RTVSPropertyOp29
 70
     1
102
RTVSPropertyOp30
 70
     1
102
RTVSPropertyOp31
 70
     1
102
RTVSPropertyOp32
 70
     1
  0
XRECORD
  5
3715
102
{ACAD_REACTORS
330
3714
102
}
330
3714
100
AcDbXrecord
280
     1
102
RTVSPropertyOp0
 70
     1
102
RTVSPropertyOp1
 70
     1
102
RTVSPropertyOp2
 70
     1
102
RTVSPropertyOp3
 70
     1
102
RTVSPropertyOp4
 70
     1
102
RTVSPropertyOp5
 70
     1
102
RTVSPropertyOp6
 70
     1
102
RTVSPropertyOp7
 70
     1
102
RTVSPropertyOp8
 70
     1
102
RTVSPropertyOp9
 70
     1
102
RTVSPropertyOp10
 70
     1
102
RTVSPropertyOp11
 70
     1
102
RTVSPropertyOp12
 70
     1
102
RTVSPropertyOp13
 70
     1
102
RTVSPropertyOp14
 70
     1
102
RTVSPropertyOp15
 70
     1
102
RTVSPropertyOp16
 70
     1
102
RTVSPropertyOp17
 70
     1
102
RTVSPropertyOp18
 70
     1
102
RTVSPropertyOp19
 70
     1
102
RTVSPropertyOp20
 70
     1
102
RTVSPropertyOp21
 70
     1
102
RTVSPropertyOp22
 70
     1
102
RTVSPropertyOp23
 70
     1
102
RTVSPropertyOp24
 70
     1
102
RTVSPropertyOp25
 70
     1
102
RTVSPropertyOp26
 70
     1
102
RTVSPropertyOp27
 70
     1
102
RTVSPropertyOp28
 70
     1
102
RTVSPropertyOp29
 70
     1
102
RTVSPropertyOp30
 70
     1
102
RTVSPropertyOp31
 70
     1
102
RTVSPropertyOp32
 70
     1
  0
XRECORD
  5
3717
102
{ACAD_REACTORS
330
3716
102
}
330
3716
100
AcDbXrecord
280
     1
102
RTVSPropertyOp0
 70
     1
102
RTVSPropertyOp1
 70
     1
102
RTVSPropertyOp2
 70
     1
102
RTVSPropertyOp3
 70
     1
102
RTVSPropertyOp4
 70
     1
102
RTVSPropertyOp5
 70
     1
102
RTVSPropertyOp6
 70
     1
102
RTVSPropertyOp7
 70
     1
102
RTVSPropertyOp8
 70
     1
102
RTVSPropertyOp9
 70
     1
102
RTVSPropertyOp10
 70
     1
102
RTVSPropertyOp11
 70
     1
102
RTVSPropertyOp12
 70
     1
102
RTVSPropertyOp13
 70
     1
102
RTVSPropertyOp14
 70
     1
102
RTVSPropertyOp15
 70
     1
102
RTVSPropertyOp16
 70
     1
102
RTVSPropertyOp17
 70
     1
102
RTVSPropertyOp18
 70
     1
102
RTVSPropertyOp19
 70
     1
102
RTVSPropertyOp20
 70
     1
102
RTVSPropertyOp21
 70
     1
102
RTVSPropertyOp22
 70
     1
102
RTVSPropertyOp23
 70
     1
102
RTVSPropertyOp24
 70
     1
102
RTVSPropertyOp25
 70
     1
102
RTVSPropertyOp26
 70
     1
102
RTVSPropertyOp27
 70
     1
102
RTVSPropertyOp28
 70
     1
102
RTVSPropertyOp29
 70
     1
102
RTVSPropertyOp30
 70
     1
102
RTVSPropertyOp31
 70
     1
102
RTVSPropertyOp32
 70
     1
  0
XRECORD
  5
370D
102
{ACAD_REACTORS
330
370C
102
}
330
370C
100
AcDbXrecord
280
     1
102
RTVSPropertyOp0
 70
     1
102
RTVSPropertyOp1
 70
     1
102
RTVSPropertyOp2
 70
     1
102
RTVSPropertyOp3
 70
     1
102
RTVSPropertyOp4
 70
     1
102
RTVSPropertyOp5
 70
     1
102
RTVSPropertyOp6
 70
     1
102
RTVSPropertyOp7
 70
     1
102
RTVSPropertyOp8
 70
     1
102
RTVSPropertyOp9
 70
     1
102
RTVSPropertyOp10
 70
     1
102
RTVSPropertyOp11
 70
     1
102
RTVSPropertyOp12
 70
     1
102
RTVSPropertyOp13
 70
     1
102
RTVSPropertyOp14
 70
     1
102
RTVSPropertyOp15
 70
     1
102
RTVSPropertyOp16
 70
     1
102
RTVSPropertyOp17
 70
     1
102
RTVSPropertyOp18
 70
     1
102
RTVSPropertyOp19
 70
     1
102
RTVSPropertyOp20
 70
     1
102
RTVSPropertyOp21
 70
     1
102
RTVSPropertyOp22
 70
     1
102
RTVSPropertyOp23
 70
     1
102
RTVSPropertyOp24
 70
     1
102
RTVSPropertyOp25
 70
     1
102
RTVSPropertyOp26
 70
     1
102
RTVSPropertyOp27
 70
     1
102
RTVSPropertyOp28
 70
     1
102
RTVSPropertyOp29
 70
     1
102
RTVSPropertyOp30
 70
     1
102
RTVSPropertyOp31
 70
     1
102
RTVSPropertyOp32
 70
     1
  0
XRECORD
  5
3701
102
{ACAD_REACTORS
330
3700
102
}
330
3700
100
AcDbXrecord
280
     1
102
RTVSPropertyOp0
 70
     1
102
RTVSPropertyOp1
 70
     1
102
RTVSPropertyOp2
 70
     1
102
RTVSPropertyOp3
 70
     1
102
RTVSPropertyOp4
 70
     1
102
RTVSPropertyOp5
 70
     1
102
RTVSPropertyOp6
 70
     1
102
RTVSPropertyOp7
 70
     1
102
RTVSPropertyOp8
 70
     1
102
RTVSPropertyOp9
 70
     1
102
RTVSPropertyOp10
 70
     1
102
RTVSPropertyOp11
 70
     1
102
RTVSPropertyOp12
 70
     1
102
RTVSPropertyOp13
 70
     1
102
RTVSPropertyOp14
 70
     1
102
RTVSPropertyOp15
 70
     1
102
RTVSPropertyOp16
 70
     1
102
RTVSPropertyOp17
 70
     1
102
RTVSPropertyOp18
 70
     1
102
RTVSPropertyOp19
 70
     1
102
RTVSPropertyOp20
 70
     1
102
RTVSPropertyOp21
 70
     1
102
RTVSPropertyOp22
 70
     1
102
RTVSPropertyOp23
 70
     1
102
RTVSPropertyOp24
 70
     1
102
RTVSPropertyOp25
 70
     1
102
RTVSPropertyOp26
 70
     1
102
RTVSPropertyOp27
 70
     1
102
RTVSPropertyOp28
 70
     1
102
RTVSPropertyOp29
 70
     1
102
RTVSPropertyOp30
 70
     1
102
RTVSPropertyOp31
 70
     1
102
RTVSPropertyOp32
 70
     1
  0
XRECORD
  5
3719
102
{ACAD_REACTORS
330
3718
102
}
330
3718
100
AcDbXrecord
280
     1
102
RTVSPropertyOp0
 70
     1
102
RTVSPropertyOp1
 70
     1
102
RTVSPropertyOp2
 70
     1
102
RTVSPropertyOp3
 70
     1
102
RTVSPropertyOp4
 70
     1
102
RTVSPropertyOp5
 70
     1
102
RTVSPropertyOp6
 70
     1
102
RTVSPropertyOp7
 70
     1
102
RTVSPropertyOp8
 70
     1
102
RTVSPropertyOp9
 70
     1
102
RTVSPropertyOp10
 70
     1
102
RTVSPropertyOp11
 70
     1
102
RTVSPropertyOp12
 70
     1
102
RTVSPropertyOp13
 70
     1
102
RTVSPropertyOp14
 70
     1
102
RTVSPropertyOp15
 70
     1
102
RTVSPropertyOp16
 70
     1
102
RTVSPropertyOp17
 70
     1
102
RTVSPropertyOp18
 70
     1
102
RTVSPropertyOp19
 70
     1
102
RTVSPropertyOp20
 70
     1
102
RTVSPropertyOp21
 70
     1
102
RTVSPropertyOp22
 70
     1
102
RTVSPropertyOp23
 70
     1
102
RTVSPropertyOp24
 70
     1
102
RTVSPropertyOp25
 70
     1
102
RTVSPropertyOp26
 70
     1
102
RTVSPropertyOp27
 70
     1
102
RTVSPropertyOp28
 70
     1
102
RTVSPropertyOp29
 70
     1
102
RTVSPropertyOp30
 70
     1
102
RTVSPropertyOp31
 70
     1
102
RTVSPropertyOp32
 70
     1
  0
ENDSEC
  0
EOF
